Присоединяйтесь к нам в Telegram!, здесь всегда актуальный адрес сайта, оперативная поддержка и многое другое!!

>

5.9

iTunes

7.4

iTunes

9.4

1 сезон

1

7.4

2 сезон

7.2

iTunes

7.3

1 сезон

13

6.1

iTunes

8.3

GOG

30

ULTIMATE

pack

9.9

Лицензия

ВАЖНО

ИГРА 18+

pack

7.3

RePack

MK11

7.7

RePack

jed

7.8

RePack

fifa19

8.5

RePack

RDR2

RePack

NEED FOR SPEED™ PAYBACK

5 сезон

9 сезон

Бесстыжие 9 сезон

Все сериалы

все сериалы на PB.wtf

RePack

FAR CRY 5

Anonymous, доброе утро, мы катастрофически не успеваем собрать деньги на оплату серверов, помогите нам пожалуйста 5,10,15р., для нас важна любая помощь . В качестве благодарности мы отключим Вам всю рекламу на сайте (укажите свой ник в строку Ваше имя)!

×
  
Magnet ссылка

Штат Блу Маунтин: Восстание Тадлэнда / Blue Mountain State: The Rise of Thadland (Лев Л. Спиро) [2016, комедия, спорт, WEB-DL 1080p] DVO kino.freetor.icu

Штат Блу Маунтин: Восстание Тадлэнда через торрент kino.freetor.icu

Размер: 3.16 GB | Добавлен: 5 лет 9 мес. назад | Торрент скачан:318 раз
Смотреть онлайн Штат Блу Маунтин: Восстание Тадлэнда | Скачать    Ребята, помогите собрать деньги на оплату серверов!!!

07-02-2016 12:56 Штат Блу Маунтин: Восстание Тадлэнда Скачать торрент  

Информация о фильме

Название: Штат Блу Маунтин: Восстание Тадлэнда

Оригинальное название: Blue Mountain State: The Rise of Thadland

Год выхода: 2016

Жанр: комедия, спорт

Выпущено: США / AllyCat Entertainment, BMS Brands, Dead Fish Films, Falconer / Romanski

Продолжительность: 01:30:10

Озвучивание: Любительское (двухголосное) [Parovoz Production]

Режиссёр: Лев Л. Спиро

Субтитры: English

В ролях: Алан Ричсон, Дэрин Брукс, Джеймс Кейд, Роб Рамсей, Крис Романо, Фрэнки Шоу, Омари Ньютон, Эд Маринаро, Дани Джонс, Эд Аматрудо

Описание: Когда декан университета Блю Маунтин грозится продать дом университетской команды "Козлы", Алекс устраивает Таду вечеринку его мечты с целью убедить последнего выкупить этот дом.



Примечание: Релиз без рекламы.

Файл

Качество: WEB-DL 1080p
Формат: MKV
Видео: MPEG-4 AVC, 4341 kb/s, 1912x808,23.976 fps
Аудио: Russian: AC3, 192 kb/s (2 ch) 48.0 KHz
Аудио: English: AC3, 384 kb/s (6 ch) 48.0 KHz
Format : Matroska

Format version : Version 2

File size : 3.16 GiB

Duration : 1h 30mn

Overall bit rate : 5 017 Kbps

Encoded date : UTC 2016-02-06 19:10:22

Writing application : mkvmerge v7.8.0 ('River Man') 32bit built on Apr 3 2015 12:11:22

Writing library : libebml v1.3.1 + libmatroska v1.4.2

Video

ID : 1

Format : AVC

Format/Info : Advanced Video Codec

Format profile : High@L4

Format settings, CABAC : Yes

Format settings, ReFrames : 5 frames

Codec ID : V_MPEG4/ISO/AVC

Duration : 1h 30mn

Bit rate : 4 341 Kbps

Width : 1 912 pixels

Height : 808 pixels

Display aspect ratio : 2.35:1

Frame rate mode : Constant

Frame rate : 23.976 fps

Color space : YUV

Chroma subsampling : 4:2:0

Bit depth : 8 bits

Scan type : Progressive

Bits/(Pixel*Frame) : 0.117

Stream size : 2.73 GiB (87%)

Language : English

Default : Yes

Forced : No

Color range : Limited

Color primaries : BT.709

Transfer characteristics : BT.709

Matrix coefficients : BT.709

Audio #1

ID : 2

Format : AC-3

Format/Info : Audio Coding 3

Mode extension : CM (complete main)

Format settings, Endianness : Big

Codec ID : A_AC3

Duration : 1h 30mn

Bit rate mode : Constant

Bit rate : 192 Kbps

Channel(s) : 2 channels

Channel positions : Front: L R

Sampling rate : 48.0 KHz

Bit depth : 16 bits

Compression mode : Lossy

Stream size : 124 MiB (4%)

Language : Russian

Default : Yes

Forced : No

Audio #2

ID : 3

Format : AC-3

Format/Info : Audio Coding 3

Mode extension : CM (complete main)

Format settings, Endianness : Big

Codec ID : A_AC3

Duration : 1h 30mn

Bit rate mode : Constant

Bit rate : 384 Kbps

Channel(s) : 6 channels

Channel positions : Front: L C R, Side: L R, LFE

Sampling rate : 48.0 KHz

Bit depth : 16 bits

Compression mode : Lossy

Stream size : 248 MiB (8%)

Language : English

Default : No

Forced : No

Text

ID : 4

Format : UTF-8

Codec ID : S_TEXT/UTF8

Codec ID/Info : UTF-8 Plain Text

Language : English

Default : No

Forced : No

Menu

00:00:00.000 : en:1

00:10:14.000 : en:2

00:20:37.000 : en:3

00:30:22.000 : en:4

00:42:42.000 : en:5

00:52:37.000 : en:6

01:02:58.000 : en:7

01:13:50.000 : en:8

01:21:15.000 : en:9






kino.freetor.icu



Скачать Штат Блу Маунтин: Восстание Тадлэнда через торрент http://i66.fastpic.ru/big/2016/0206/e1/797a192331f1fbc724c0066872c0cee1.jpg Скачать, смотреть онлайн Штат Блу Маунтин: Восстание Тадлэнда бесплантно в хорошем качестве Описание: Когда декан университета Блю Маунтин грозится продать дом университетской команды "Козлы", Алекс устраивает Таду вечеринку его ... 7.3 10 8
Торрент: Зарегистрирован [2016-02-07 12:56] · скачан: 318 раз
Статус: T временная
Размер: 3.16 GB
Как cкачать? Как скачать Штат Блу Маунтин: Восстание Тадлэнда через торрент | UTorrent

% Раздел Тема Автор DL S | L
T Фильмы 2016 (Звук TS, Cam, VO, DVO) [ 1.45 GB ] Штат Блу Маунтин: Восстание Тадлэнда / Blue Mountain State: The Rise of Thadland [2016 WEB-DLRip] DVO Ворон Скачать
1 | 0

28-11-2019 20:33  

Отключить всю рекламу на сайте

07-02-2016 13:03 Штат Блу Маунтин: Восстание Тадлэнда Скачать торрент  



kino.freetor.icu



07-02-2016 13:26 Штат Блу Маунтин: Восстание Тадлэнда Скачать торрент  

настоятельно рекомендую посмотреть сериал,чтобы понять о чем речь kino.freetor.icu



07-02-2016 19:21 Штат Блу Маунтин: Восстание Тадлэнда Скачать торрент  

Если сравнивать с сериалом, не стоит и потраченной минуты просмотра.kino.freetor.icu



01-03-2016 15:38 Штат Блу Маунтин: Восстание Тадлэнда Скачать торрент  

сериал пересматривал несколько раз,а это говнище пожалел, что смотрел...kino.freetor.icu



    Дорогой пользователь! Огромная просьба, поблагодарите релизера, оцените раздачу и оставьте свои комментарий, если Вы скачали Штат Блу Маунтин: Восстание Тадлэнда через торрент бесплатно!
    Комментировать посты могут только пользователи прошедшие не сложную регистрацию
    Показать сообщения:    

    Штат Блу Маунтин: Восстание Тадлэнда через торрент
    Скачать бесплатно Штат Блу Маунтин: Восстание Тадлэнда
    Штат Блу Маунтин: Восстание Тадлэнда скачать торрент
    Штат Блу Маунтин: Восстание Тадлэнда смотреть онлайн
    Cкачать фильм Штат Блу Маунтин: Восстание Тадлэнда бесплатно
    Штат Блу Маунтин: Восстание Тадлэнда скачать торрент в хорошем качестве
    Штат Блу Маунтин: Восстание Тадлэнда смотреть онлайн бесплатно в хорошем качестве


    Вы не можете начинать темы
    Вы не можете отвечать на сообщения
    Вы не можете редактировать свои сообщения
    Вы не можете удалять свои сообщения
    Вы не можете голосовать в опросах
    Вы не можете прикреплять файлы к сообщениям
    Вы можете скачивать файлы