Anonymous, добрый день, присоединяйтесь к нам в Telegram!, здесь всегда актуальный адрес сайта, оперативная поддержка и многое другое!

>

5.6

iTunes

7.4

iTunes

7.9

MVO

1

7.7

1 сезон

6.8

iTunes

7.3

1 сезон

13

6.7

1 сезон

8.3

RePack

30

ULTIMATE

pack

9.9

Лицензия

ВАЖНО

ИГРА 18+

pack

7.3

RePack

MK11

7.7

RePack

jed

7.8

RePack

fifa19

8.5

RePack

RDR2

RePack

NEED FOR SPEED™ PAYBACK

4 сезон

9 сезон

Бесстыжие 9 сезон

Все сериалы

все сериалы на PB.wtf

RePack

FAR CRY 5

Anonymous, добрый день, мы катастрофически не успеваем собрать деньги на оплату серверов, помогите нам пожалуйста 5,10,15р., для нас важна любая помощь . В качестве благодарности мы отключим Вам всю рекламу на сайте (укажите свой ник в строку Ваше имя)!

×
  
Magnet ссылка

БАСТА - Баста 5, часть 1 и 2 [2CD] (2016) / FLAC (image + .cue) / lossless / Rap kino.freetor.icu

БАСТА - Баста 5, часть 1 и 2 через торрент kino.freetor.icu

Раздают: 1 [ 0 KB/s ]
Размер: 827 MB | Добавлен: 5 лет 2 мес. назад | Торрент скачан:419 раз
Смотреть онлайн БАСТА - Баста 5, часть 1 и 2 | Скачать    Ребята, помогите собрать деньги на оплату серверов!!!

07-08-2016 17:15 БАСТА - Баста 5, часть 1 и 2 Скачать торрент  

БАСТА - Баста 5, часть 1 и 2 [2CD]

Страна: Россия
Жанр: Rap
Год выпуска: 2016
Формат: FLAC (image + .cue)
Битрейт аудио: lossless
Длительность: 01:46:56
Баста 5, Часть 1
01. Моё время в пути (интро) (6:49)
02. Удивительный мир (3:40)
03. Фонари ft. Тати (5:13)
04. Голос ft. Полина Гагарина (3:13)
05. Я смотрю на небо (4:24)
06. Партизан (2:42)
07. Я рано научился летать (4:34)
08. Хочу к тебе (3:41)
09. Буду (5:53)
10. Последнее слово ft. Олег Майами (5:33)
11. Там, где нас нет (4:58)

Баста 5, Часть 2
01. Финальный матч ft. Смоки Мо (4:38)
02. Виски и кокаин ft. Нервы & Смоки Мо (5:56)
03. Выпускной (Медлячок) (5:35)
04. XTZ (3:57)
05. Рэп как шанс ft. Крип-А-Крип & Змей & Jahmal & TGK & Регион Снега & Лион & Карандаш & Муза Скат (5:10)
06. Мои разбитые мечты (3:46)
07. Троллейбус (1:54)
08. Чёрт (4:40)
09. Ум ft. UM (5:09)
10. Я почти погиб (5:19)
11. Я поднимаюсь над землёй ft. Алёна Омаргалиева (3:44)
12. Космос ft. Чаруша (6:30)

Код:

Exact Audio Copy V1.1 from 23. June 2015

Отчёт EAC об извлечении, выполненном 19. июля 2016, 18:56

Баста / Баста 5

Дисковод: Optiarc DVD RW AD-7200S   Adapter: 1  ID: 1

Режим чтения                 : Достоверность
Использование точного потока : Да
Отключение кэша аудио        : Да
Использование указателей C2  : Нет

Коррекция смещения при чтении                     : 48
Способность читать области Lead-in и Lead-out     : Нет
Заполнение пропущенных сэмплов тишиной            : Да
Удаление блоков с тишиной в начале и конце        : Нет
При вычислениях CRC использовались нулевые сэмплы : Да
Интерфейс                                         : Встроенный Win32-интерфейс для Win NT/2000
Обработка зазоров                                 : Добавлено к предыдущему треку

Выходной формат          : Пользовательский кодировщик
Выбранный битрейт        : 768 kBit/s
Качество                 : Высокий
Добавление ID3-тега      : Нет
Утилита сжатия           : C:\Program Files (x86)\Exact Audio Copy\FLAC\FLAC.EXE
Дополнительные параметры : -6 -V -T "ARTIST=%artist%" -T "TITLE=%title%" -T "ALBUM=%albumtitle%" -T "DATE=%year%" -T "TRACKNUMBER=%tracknr%" -T "GENRE=%genre%" -T "COMMENT=%comment%" -T "BAND=%albuminterpret%" -T "ALBUMARTIST=%albuminterpret%" -T "COMPOSER=%composer%" %haslyrics%--tag-from-file=LYRICS="%lyricsfile%"%haslyrics% -T "DISCNUMBER=%cdnumber%" -T "TOTALDISCS=%totalcds%" -T "TOTALTRACKS=%numtracks%" %hascover%--picture="%coverfile%"%hascover% %source% -o %dest%

TOC извлечённого CD

     Трек |   Старт  | Длительность | Начальный сектор | Конечный сектор
    ---------------------------------------------------------------------
       1  |  0:00.00 |    6:48.42   |           0      |      30641
       2  |  6:48.42 |    3:39.45   |       30642      |      47111
       3  | 10:28.12 |    5:12.51   |       47112      |      70562
       4  | 15:40.63 |    3:13.09   |       70563      |      85046
       5  | 18:53.72 |    4:24.00   |       85047      |     104846
       6  | 23:17.72 |    2:42.00   |      104847      |     116996
       7  | 25:59.72 |    4:34.00   |      116997      |     137546
       8  | 30:33.72 |    3:41.28   |      137547      |     154149
       9  | 34:15.25 |    5:52.46   |      154150      |     180595
      10  | 40:07.71 |    5:33.00   |      180596      |     205570
      11  | 45:40.71 |    4:58.18   |      205571      |     227938

Трек  1

     Имя файла E:\torrent\Баста 5\часть 1\01 Моё время в пути (интро).wav

     Длина предзазора  0:00:02.00

     Пиковый уровень 98.8 %
     Скорость извлечения 2.6 X
     Качество трека 100.0 %
     CRC теста 45141274
     CRC копии 45141274
     Трек не обнаружен в базе AccurateRip
     Копирование... OK

Трек  2

     Имя файла E:\torrent\Баста 5\часть 1\02 Удивительный мир.wav

     Пиковый уровень 98.8 %
     Скорость извлечения 2.8 X
     Качество трека 100.0 %
     CRC теста 5F88568A
     CRC копии 5F88568A
     Трек не обнаружен в базе AccurateRip
     Копирование... OK

Трек  3

     Имя файла E:\torrent\Баста 5\часть 1\03 Фонари ft. Тати.wav

     Пиковый уровень 98.8 %
     Скорость извлечения 3.1 X
     Качество трека 100.0 %
     CRC теста 6F771886
     CRC копии 6F771886
     Трек не обнаружен в базе AccurateRip
     Копирование... OK

Трек  4

     Имя файла E:\torrent\Баста 5\часть 1\04 Голос ft. Полина Гагарина.wav

     Пиковый уровень 98.8 %
     Скорость извлечения 3.1 X
     Качество трека 100.0 %
     CRC теста EFF37120
     CRC копии EFF37120
     Трек не обнаружен в базе AccurateRip
     Копирование... OK

Трек  5

     Имя файла E:\torrent\Баста 5\часть 1\05 Я смотрю на небо.wav

     Пиковый уровень 98.8 %
     Скорость извлечения 3.5 X
     Качество трека 100.0 %
     CRC теста 6B203E00
     CRC копии 6B203E00
     Трек не обнаружен в базе AccurateRip
     Копирование... OK

Трек  6

     Имя файла E:\torrent\Баста 5\часть 1\06 Партизан.wav

     Пиковый уровень 98.8 %
     Скорость извлечения 2.8 X
     Качество трека 99.9 %
     CRC теста 572E1FC4
     CRC копии 572E1FC4
     Трек не обнаружен в базе AccurateRip
     Копирование... OK

Трек  7

     Имя файла E:\torrent\Баста 5\часть 1\07 Я рано научился летать.wav

     Пиковый уровень 98.8 %
     Скорость извлечения 3.8 X
     Качество трека 100.0 %
     CRC теста EE5B0941
     CRC копии EE5B0941
     Трек не обнаружен в базе AccurateRip
     Копирование... OK

Трек  8

     Имя файла E:\torrent\Баста 5\часть 1\08 Хочу к тебе.wav

     Пиковый уровень 98.8 %
     Скорость извлечения 3.8 X
     Качество трека 100.0 %
     CRC теста C2BDF216
     CRC копии C2BDF216
     Трек не обнаружен в базе AccurateRip
     Копирование... OK

Трек  9

     Имя файла E:\torrent\Баста 5\часть 1\09 Буду.wav

     Пиковый уровень 98.8 %
     Скорость извлечения 4.3 X
     Качество трека 100.0 %
     CRC теста F0B0CDD5
     CRC копии F0B0CDD5
     Трек не обнаружен в базе AccurateRip
     Копирование... OK

Трек 10

     Имя файла E:\torrent\Баста 5\часть 1\10 Последнее слово ft. Олег Майами.wav

     Пиковый уровень 98.8 %
     Скорость извлечения 4.1 X
     Качество трека 99.9 %
     CRC теста 3AE28A10
     CRC копии 3AE28A10
     Трек не обнаружен в базе AccurateRip
     Копирование... OK

Трек 11

     Имя файла E:\torrent\Баста 5\часть 1\11 Там, где нас нет.wav

     Пиковый уровень 98.8 %
     Скорость извлечения 4.6 X
     Качество трека 100.0 %
     CRC теста 1EE1CD30
     CRC копии 1EE1CD30
     Трек не обнаружен в базе AccurateRip
     Копирование... OK

Ни одного трека нет в базе AccurateRip

Ошибок не произошло

Конец отчёта

---- CUETools DB Plugin V2.1.6

[CTDB TOCID: GOFEN.wDuE0QdY5VRGpOM54eS_s-] found
Submit result: GOFEN.wDuE0QdY5VRGpOM54eS_s- has been confirmed
Track | CTDB Status
  1   | (2/2) Accurately ripped
  2   | (2/2) Accurately ripped
  3   | (2/2) Accurately ripped
  4   | (2/2) Accurately ripped
  5   | (2/2) Accurately ripped
  6   | (2/2) Accurately ripped
  7   | (2/2) Accurately ripped
  8   | (2/2) Accurately ripped
  9   | (2/2) Accurately ripped
10   | (2/2) Accurately ripped
11   | (2/2) Accurately ripped

==== Контрольная сумма отчёта ED69EAC4B45371592BCC9CDA1887EF305F68FCD13A8F7E2A25F504E57C30179E ====

Код:

Exact Audio Copy V1.1 from 23. June 2015

Отчёт EAC об извлечении, выполненном 19. июля 2016, 22:05

Баста / Баста 5

Дисковод: Optiarc DVD RW AD-7200S   Adapter: 1  ID: 1

Режим чтения                 : Достоверность
Использование точного потока : Да
Отключение кэша аудио        : Да
Использование указателей C2  : Нет

Коррекция смещения при чтении                     : 48
Способность читать области Lead-in и Lead-out     : Нет
Заполнение пропущенных сэмплов тишиной            : Да
Удаление блоков с тишиной в начале и конце        : Нет
При вычислениях CRC использовались нулевые сэмплы : Да
Интерфейс                                         : Встроенный Win32-интерфейс для Win NT/2000
Обработка зазоров                                 : Добавлено к предыдущему треку

Выходной формат          : Пользовательский кодировщик
Выбранный битрейт        : 768 kBit/s
Качество                 : Высокий
Добавление ID3-тега      : Нет
Утилита сжатия           : C:\Program Files (x86)\Exact Audio Copy\FLAC\FLAC.EXE
Дополнительные параметры : -6 -V -T "ARTIST=%artist%" -T "TITLE=%title%" -T "ALBUM=%albumtitle%" -T "DATE=%year%" -T "TRACKNUMBER=%tracknr%" -T "GENRE=%genre%" -T "COMMENT=%comment%" -T "BAND=%albuminterpret%" -T "ALBUMARTIST=%albuminterpret%" -T "COMPOSER=%composer%" %haslyrics%--tag-from-file=LYRICS="%lyricsfile%"%haslyrics% -T "DISCNUMBER=%cdnumber%" -T "TOTALDISCS=%totalcds%" -T "TOTALTRACKS=%numtracks%" %hascover%--picture="%coverfile%"%hascover% %source% -o %dest%

TOC извлечённого CD

     Трек |   Старт  | Длительность | Начальный сектор | Конечный сектор
    ---------------------------------------------------------------------
       1  |  0:00.00 |    4:38.22   |           0      |      20871
       2  |  4:38.22 |    5:56.15   |       20872      |      47586
       3  | 10:34.37 |    5:35.00   |       47587      |      72711
       4  | 16:09.37 |    3:56.46   |       72712      |      90457
       5  | 20:06.08 |    5:09.46   |       90458      |     113678
       6  | 25:15.54 |    3:45.56   |      113679      |     130609
       7  | 29:01.35 |    1:53.46   |      130610      |     139130
       8  | 30:55.06 |    4:40.28   |      139131      |     160158
       9  | 35:35.34 |    5:08.56   |      160159      |     183314
      10  | 40:44.15 |    5:19.37   |      183315      |     207276
      11  | 46:03.52 |    3:44.09   |      207277      |     224085
      12  | 49:47.61 |    6:29.67   |      224086      |     253327

Трек  1

     Имя файла E:\torrent\Баста 5\часть 2\01 Финальный матч ft. Смоки Мо.wav

     Длина предзазора  0:00:02.00

     Пиковый уровень 98.8 %
     Скорость извлечения 2.4 X
     Качество трека 100.0 %
     CRC теста 27DF862D
     CRC копии 27DF862D
     Трек не обнаружен в базе AccurateRip
     Копирование... OK

Трек  2

     Имя файла E:\torrent\Баста 5\часть 2\02 Виски и кокаин ft. Нервы & Смоки Мо.wav

     Пиковый уровень 98.8 %
     Скорость извлечения 2.6 X
     Качество трека 99.9 %
     CRC теста E219BA83
     CRC копии E219BA83
     Трек не обнаружен в базе AccurateRip
     Копирование... OK

Трек  3

     Имя файла E:\torrent\Баста 5\часть 2\03 Выпускной (Медлячок).wav

     Пиковый уровень 98.8 %
     Скорость извлечения 2.9 X
     Качество трека 99.9 %
     CRC теста AC40464F
     CRC копии AC40464F
     Трек не обнаружен в базе AccurateRip
     Копирование... OK

Трек  4

     Имя файла E:\torrent\Баста 5\часть 2\04 XTZ.wav

     Пиковый уровень 98.8 %
     Скорость извлечения 3.3 X
     Качество трека 100.0 %
     CRC теста CC221397
     CRC копии CC221397
     Трек не обнаружен в базе AccurateRip
     Копирование... OK

Трек  5

     Имя файла E:\torrent\Баста 5\часть 2\05 Рэп как шанс ft. Крип-А-Крип & Змей & Jahmal & TGK & Регион Снега & Лион & Карандаш & Муза Скат.wav

     Пиковый уровень 98.8 %
     Скорость извлечения 3.6 X
     Качество трека 100.0 %
     CRC теста 121E97EE
     CRC копии 121E97EE
     Трек не обнаружен в базе AccurateRip
     Копирование... OK

Трек  6

     Имя файла E:\torrent\Баста 5\часть 2\06 Мои разбитые мечты.wav

     Пиковый уровень 98.8 %
     Скорость извлечения 3.2 X
     Качество трека 99.9 %
     CRC теста 8E82BBCC
     CRC копии 8E82BBCC
     Трек не обнаружен в базе AccurateRip
     Копирование... OK

Трек  7

     Имя файла E:\torrent\Баста 5\часть 2\07 Троллейбус.wav

     Пиковый уровень 98.8 %
     Скорость извлечения 3.3 X
     Качество трека 100.0 %
     CRC теста 6B3A353D
     CRC копии 6B3A353D
     Трек не обнаружен в базе AccurateRip
     Копирование... OK

Трек  8

     Имя файла E:\torrent\Баста 5\часть 2\08 Чёрт.wav

     Пиковый уровень 98.8 %
     Скорость извлечения 4.0 X
     Качество трека 100.0 %
     CRC теста 2BFA3268
     CRC копии 2BFA3268
     Трек не обнаружен в базе AccurateRip
     Копирование... OK

Трек  9

     Имя файла E:\torrent\Баста 5\часть 2\09 Ум ft. UM.wav

     Пиковый уровень 98.8 %
     Скорость извлечения 3.9 X
     Качество трека 99.9 %
     CRC теста 65BEBAF3
     CRC копии 65BEBAF3
     Трек не обнаружен в базе AccurateRip
     Копирование... OK

Трек 10

     Имя файла E:\torrent\Баста 5\часть 2\10 Я почти погиб.wav

     Пиковый уровень 98.8 %
     Скорость извлечения 4.5 X
     Качество трека 100.0 %
     CRC теста 5E2D5CDE
     CRC копии 5E2D5CDE
     Трек не обнаружен в базе AccurateRip
     Копирование... OK

Трек 11

     Имя файла E:\torrent\Баста 5\часть 2\11 Я поднимаюсь над землёй ft. Алёна Омаргалиева.wav

     Пиковый уровень 98.8 %
     Скорость извлечения 3.9 X
     Качество трека 99.9 %
     CRC теста DF953880
     CRC копии DF953880
     Трек не обнаружен в базе AccurateRip
     Копирование... OK

Трек 12

     Имя файла E:\torrent\Баста 5\часть 2\12 Космос ft. Чаруша.wav

     Пиковый уровень 98.8 %
     Скорость извлечения 4.9 X
     Качество трека 100.0 %
     CRC теста BD6B8152
     CRC копии BD6B8152
     Трек не обнаружен в базе AccurateRip
     Копирование... OK

Ни одного трека нет в базе AccurateRip

Ошибок не произошло

Конец отчёта

---- CUETools DB Plugin V2.1.6

[CTDB TOCID: jtL3PYYKrntzjFCLjX1uJCLm3Q0-] found
Submit result: jtL3PYYKrntzjFCLjX1uJCLm3Q0- has been confirmed
Track | CTDB Status
  1   | (2/2) Accurately ripped
  2   | (2/2) Accurately ripped
  3   | (2/2) Accurately ripped
  4   | (2/2) Accurately ripped
  5   | (2/2) Accurately ripped
  6   | (2/2) Accurately ripped
  7   | (2/2) Accurately ripped
  8   | (2/2) Accurately ripped
  9   | (2/2) Accurately ripped
10   | (2/2) Accurately ripped
11   | (2/2) Accurately ripped
12   | (2/2) Accurately ripped

==== Контрольная сумма отчёта 2725EF3494CE4A2C003F8E58921A5D68BEBE9BE7289829F5398CBB46CF63072F ====


Код:

REM GENRE rap
REM DATE 2016
REM DISCID 890BDF0B
REM COMMENT "ExactAudioCopy v1.1"
PERFORMER "Баста"
TITLE "Баста 5"
FILE "01 Моё время в пути (интро).wav" WAVE
  TRACK 01 AUDIO
    TITLE "Моё время в пути (интро)"
    PERFORMER "Баста"
    INDEX 01 00:00:00
FILE "02 Удивительный мир.wav" WAVE
  TRACK 02 AUDIO
    TITLE "Удивительный мир"
    PERFORMER "Баста"
    INDEX 01 00:00:00
FILE "03 Фонари ft. Тати.wav" WAVE
  TRACK 03 AUDIO
    TITLE "Фонари ft. Тати"
    PERFORMER "Баста"
    INDEX 01 00:00:00
FILE "04 Голос ft. Полина Гагарина.wav" WAVE
  TRACK 04 AUDIO
    TITLE "Голос ft. Полина Гагарина"
    PERFORMER "Баста"
    INDEX 01 00:00:00
FILE "05 Я смотрю на небо.wav" WAVE
  TRACK 05 AUDIO
    TITLE "Я смотрю на небо"
    PERFORMER "Баста"
    INDEX 01 00:00:00
FILE "06 Партизан.wav" WAVE
  TRACK 06 AUDIO
    TITLE "Партизан"
    PERFORMER "Баста"
    INDEX 01 00:00:00
FILE "07 Я рано научился летать.wav" WAVE
  TRACK 07 AUDIO
    TITLE "Я рано научился летать"
    PERFORMER "Баста"
    INDEX 01 00:00:00
FILE "08 Хочу к тебе.wav" WAVE
  TRACK 08 AUDIO
    TITLE "Хочу к тебе"
    PERFORMER "Баста"
    INDEX 01 00:00:00
FILE "09 Буду.wav" WAVE
  TRACK 09 AUDIO
    TITLE "Буду"
    PERFORMER "Баста"
    INDEX 01 00:00:00
FILE "10 Последнее слово ft. Олег Майами.wav" WAVE
  TRACK 10 AUDIO
    TITLE "Последнее слово ft. Олег Майами"
    PERFORMER "Баста"
    INDEX 01 00:00:00
FILE "11 Там, где нас нет.wav" WAVE
  TRACK 11 AUDIO
    TITLE "Там, где нас нет"
    PERFORMER "Баста"
    INDEX 01 00:00:00

Код:

REM GENRE Rap
REM DATE 2016
REM DISCID B60D310C
REM COMMENT "ExactAudioCopy v1.1"
PERFORMER "Баста"
TITLE "Баста 5"
FILE "01 Финальный матч ft. Смоки Мо.wav" WAVE
  TRACK 01 AUDIO
    TITLE "Финальный матч ft. Смоки Мо"
    PERFORMER "Баста"
    INDEX 01 00:00:00
FILE "02 Виски и кокаин ft. Нервы & Смоки Мо.wav" WAVE
  TRACK 02 AUDIO
    TITLE "Виски и кокаин ft. Нервы & Смоки Мо"
    PERFORMER "Баста"
    INDEX 01 00:00:00
FILE "03 Выпускной (Медлячок).wav" WAVE
  TRACK 03 AUDIO
    TITLE "Выпускной (Медлячок)"
    PERFORMER "Баста"
    INDEX 01 00:00:00
FILE "04 XTZ.wav" WAVE
  TRACK 04 AUDIO
    TITLE "XTZ"
    PERFORMER "Баста"
    INDEX 01 00:00:00
FILE "05 Рэп как шанс ft. Крип-А-Крип & Змей & Jahmal & TGK & Регион Снега & Лион & Карандаш & Муза Скат.wav" WAVE
  TRACK 05 AUDIO
    TITLE "Рэп как шанс ft. Крип-А-Крип & Змей & Jahmal & TGK & Регион Снега & Лион & Ка..."
    PERFORMER "Баста"
    INDEX 01 00:00:00
FILE "06 Мои разбитые мечты.wav" WAVE
  TRACK 06 AUDIO
    TITLE "Мои разбитые мечты"
    PERFORMER "Баста"
    INDEX 01 00:00:00
FILE "07 Троллейбус.wav" WAVE
  TRACK 07 AUDIO
    TITLE "Троллейбус"
    PERFORMER "Баста"
    INDEX 01 00:00:00
FILE "08 Чёрт.wav" WAVE
  TRACK 08 AUDIO
    TITLE "Чёрт"
    PERFORMER "Баста"
    INDEX 01 00:00:00
FILE "09 Ум ft. UM.wav" WAVE
  TRACK 09 AUDIO
    TITLE "Ум ft. UM"
    PERFORMER "Баста"
    INDEX 01 00:00:00
FILE "10 Я почти погиб.wav" WAVE
  TRACK 10 AUDIO
    TITLE "Я почти погиб"
    PERFORMER "Баста"
    INDEX 01 00:00:00
FILE "11 Я поднимаюсь над землёй ft. Алёна Омаргалиева.wav" WAVE
  TRACK 11 AUDIO
    TITLE "Я поднимаюсь над землёй ft. Алёна Омаргалиева"
    PERFORMER "Баста"
    INDEX 01 00:00:00
FILE "12 Космос ft. Чаруша.wav" WAVE
  TRACK 12 AUDIO
    TITLE "Космос ft. Чаруша"
    PERFORMER "Баста"
    INDEX 01 00:00:00

kino.freetor.icu



Скачать БАСТА - Баста 5, часть 1 и 2 через торрент http://i79.fastpic.ru/big/2016/0807/99/e9561be9354f4da3a34ac5044f9b5099.jpg Скачать, смотреть онлайн БАСТА - Баста 5, часть 1 и 2 [2CD] бесплантно в хорошем качестве Год выпуска: 2016Формат: FLAC (image + .cue)Битрейт аудио: losslessДлительность: 01:46:56Баста 5, Часть 1 Моё время в пути (интро) ... 10 10 14
Info! Золотая раздача, скачанное не засчитывается.
Торрент: Зарегистрирован [2016-08-07 17:15] · скачан: 419 раз
Статус: √ проверено
Размер: 827 MB
Как cкачать? Как скачать БАСТА - Баста 5, часть 1 и 2 через торрент | UTorrent

28-11-2019 20:33  

Отключить всю рекламу на сайте

07-08-2016 17:27 БАСТА - Баста 5, часть 1 и 2 Скачать торрент  

kino.freetor.icu



    Дорогой пользователь! Огромная просьба, поблагодарите релизера, оцените раздачу и оставьте свои комментарий, если Вы скачали БАСТА - Баста 5, часть 1 и 2 через торрент бесплатно!
    Комментировать посты могут только пользователи прошедшие не сложную регистрацию
    Показать сообщения:    

    БАСТА - Баста 5, часть 1 и 2 через торрент
    Скачать бесплатно БАСТА - Баста 5, часть 1 и 2
    БАСТА - Баста 5, часть 1 и 2 скачать торрент
    БАСТА - Баста 5, часть 1 и 2 смотреть онлайн
    Cкачать фильм БАСТА - Баста 5, часть 1 и 2 бесплатно
    БАСТА - Баста 5, часть 1 и 2 скачать торрент в хорошем качестве
    БАСТА - Баста 5, часть 1 и 2 смотреть онлайн бесплатно в хорошем качестве


    Вы не можете начинать темы
    Вы не можете отвечать на сообщения
    Вы не можете редактировать свои сообщения
    Вы не можете удалять свои сообщения
    Вы не можете голосовать в опросах
    Вы не можете прикреплять файлы к сообщениям
    Вы можете скачивать файлы