Anonymous, доброе утро, присоединяйтесь к нам в Telegram!, здесь всегда актуальный адрес сайта, оперативная поддержка и многое другое!

>

5.5

iTunes

7.4

iTunes

7.9

iTunes

1

7.7

1 сезон

6.8

iTunes

7.3

1 сезон

13

6.7

1 сезон

8.3

RePack

30

ULTIMATE

pack

9.9

Лицензия

ВАЖНО

ИГРА 18+

pack

7.3

RePack

MK11

7.7

RePack

jed

7.8

RePack

fifa19

8.5

RePack

RDR2

RePack

NEED FOR SPEED™ PAYBACK

4 сезон

9 сезон

Бесстыжие 9 сезон

Все сериалы

все сериалы на PB.wtf

RePack

FAR CRY 5

Anonymous, доброе утро, мы катастрофически не успеваем собрать деньги на оплату серверов, помогите нам пожалуйста 5,10,15р., для нас важна любая помощь . В качестве благодарности мы отключим Вам всю рекламу на сайте (укажите свой ник в строку Ваше имя)!

×
  
Magnet ссылка

Стрела / Arrow / Сезон: 5 / Серии 1-23 из 23 (Джон Беринг / John Behring, Гай Норман Би / Guy Norman Bee, Ник Копус / Nick Copus) [2016, США, фантастика, боевик, драма, WEB-DLRip-AVC] MVO [NewStudio] kino.freetor.icu

Стрела через торрент kino.freetor.icu

Размер: 18.44 GB | Добавлен: 4 года 5 мес. назад | Торрент скачан:160 раз
Смотреть онлайн Стрела | Скачать    Ребята, помогите собрать деньги на оплату серверов!!!

08-10-2016 02:25 Стрела Скачать торрент  


Стрела / Arrow

«Судьба оставляет свой отпечаток»


  • Год выпуска: 2016
  • Страна: США
  • Жанр: фантастика, боевик, драма, криминал, детектив, приключения
  • Продолжительность: 00:41:55 (Серия)
  • Перевод: Профессиональный многоголосый
  • Субтитры: русские (Forced / Forced),
  • В ролях:

    Стивен Амелл (Oliver Queen), Кэти Кэссиди (Laurel Lance), Дэвид Рэмси (John Diggle), Уилла Холланд (Thea Queen), Эмили Бетт Рикардс (Felicity Smoak), Пол Блекторн (Quentin Lance), Сюзанна Томпсон (Moira Queen), Ману Беннетт (Slade Wilson), Колтон Хэйнс (Roy Harper), Кейти Лотц (Sara Lance), Колин Доннелл (Tommy Merlyn), Джон Барроумен (Malcolm Merlyn)


  • После кораблекрушения плейбой миллиардер Оливер Куин пропадает и считается погибшим в течение пяти лет, после чего его обнаруживают живым на затерянном острове в Тихом океане. Когда он возвращается домой в Старлинг-Сити, его преданная мать Мойра, столь любимая сестра Теа и лучший друг Томми приветствуют его дома, но они видят, что Оливер изменился после испытаний на острове. Хотя Оливер скрывает правду о человеке, которым он стал...
  • Рейтинг:



  • Качество: WEB-DLRip-AVC
  • Формат: :MPEG-4
  • Видео кодек: AVC
  • Аудио кодек: AC3
  • Видео: 1024x574 (16:9), 2000 kbps, 23,976 fps, 0,141 bpp
  • Аудио №1: русский / 5.1 / 48 kHz / 384 kbps / 16 bit |[NewStudio]|
  • Аудио №2: английский / 5.1 / 48 kHz / 384 kbps / 16 bit
  • Релиз от: GEKADOL

    Внимание! Раздача ведётся путём добавления новых серий; при каждом добавлении создаётся новый торрент. Чтобы начать докачку новой серии, пользователям необходимо сделать следующее:
    (1) остановить скачивание,
    (2) удалить старый торрент у себя из клиента (старые серии удалять не надо),
    (3) скачать новый торрент и запустить его у себя в клиенте вместо старого, при этом указать клиенту путь в старую папку куда и должно происходить скачивание новых серий.
    Ваш клиент при этом должен произвести хеширование (проверку) старой папки (если не производит сам - помогите ему сделать это), и будет докачивать только те серии которых у вас ещё нет. Старые серии при этом не удаляются, а продолжают раздаваться!
    Eсли вы уже удалили старые серии, то предотвратить повторную закачку старых серий можно, отжав галочку в соответствующих местах при запуске нового торрента. По возможности, желательно не удалять старые серии как можно дольше чтобы релизёр не столько продолжал раздавать старые серии, а смог сконцентрироваться на новых.

    General
    Complete name : H:\Стрела (Сезон 5 Arrow)\Arrow.s05e01.WEB-DLRip-AVC.NewStudio.TV.mp4
    Format : MPEG-4
    Format profile : Base Media
    Codec ID : isom (isom/iso2/avc1/mp41)
    File size : 804 MiB
    Duration : 41 min
    Overall bit rate mode : Variable
    Overall bit rate : 2 679 kb/s
    Writing application : XviD4PSP 7.0.303 DAILY
    HDVideo : Yes
    encoding_info : MATROSKA / WEBM > MP4 Произвольный / H264 > X264 CBR 2000kbps HQ / AC3 > AC3 CBR 384kbps / AC3 > AC3 CBR 384kbps

    Video
    ID : 1
    Format : AVC
    Format/Info : Advanced Video Codec
    Format profile : High@L3.1
    Format settings, CABAC : Yes
    Format settings, ReFrames : 4 frames
    Codec ID : avc1
    Codec ID/Info : Advanced Video Coding
    Duration : 41 min
    Bit rate : 2 000 kb/s
    Width : 1 024 pixels
    Height : 574 pixels
    Display aspect ratio : 16:9
    Frame rate mode : Constant
    Frame rate : 23.976 (24000/1001) FPS
    Color space : YUV
    Chroma subsampling : 4:2:0
    Bit depth : 8 bits
    Scan type : Progressive
    Bits/(Pixel*Frame) : 0.141
    Stream size : 572 MiB (71%)
    Writing library : x264 core 148 r2721M 72d53ab
    Encoding settings : cabac=1 / ref=3 / deblock=1:-1:-1 / analyse=0x3:0x133 / me=hex / subme=7 / psy=1 / psy_rd=1.00:0.20 / mixed_ref=1 / me_range=16 / chroma_me=1 / trellis=1 / 8x8dct=1 / cqm=0 / deadzone=21,11 / fast_pskip=1 / chroma_qp_offset=-3 / threads=5 / lookahead_threads=1 / sliced_threads=0 / nr=0 / decimate=1 / interlaced=0 / bluray_compat=0 / constrained_intra=0 / bframes=3 / b_pyramid=2 / b_adapt=2 / b_bias=0 / direct=3 / weightb=1 / open_gop=0 / weightp=2 / keyint=230 / keyint_min=23 / scenecut=40 / intra_refresh=0 / rc_lookahead=40 / rc=cbr / mbtree=1 / bitrate=2000 / ratetol=1.0 / qcomp=0.60 / qpmin=0 / qpmax=69 / qpstep=4 / vbv_maxrate=2000 / vbv_bufsize=2000 / nal_hrd=none / filler=0 / ip_ratio=1.40 / aq=1:1.00
    Language : English
    Color range : Limited
    Color primaries : BT.709
    Transfer characteristics : BT.709
    Matrix coefficients : BT.709

    Audio #1
    ID : 2
    Format : AC-3
    Format/Info : Audio Coding 3
    Mode extension : CM (complete main)
    Format settings, Endianness : Big
    Codec ID : ac-3
    Duration : 41 min
    Bit rate mode : Constant
    Bit rate : 384 kb/s
    Channel(s) : 6 channels
    Channel positions : Front: L C R, Side: L R, LFE
    Sampling rate : 48.0 kHz
    Frame rate : 31.250 FPS (1536 spf)
    Bit depth : 16 bits
    Compression mode : Lossy
    Stream size : 115 MiB (14%)
    Title : NewStudio.TV / NewStudio.TV
    Language : Russian
    Default : Yes
    Alternate group : 1

    Audio #2
    ID : 3
    Format : AC-3
    Format/Info : Audio Coding 3
    Mode extension : CM (complete main)
    Format settings, Endianness : Big
    Codec ID : ac-3
    Duration : 41 min
    Bit rate mode : Constant
    Bit rate : 384 kb/s
    Channel(s) : 6 channels
    Channel positions : Front: L C R, Side: L R, LFE
    Sampling rate : 48.0 kHz
    Frame rate : 31.250 FPS (1536 spf)
    Bit depth : 16 bits
    Compression mode : Lossy
    Stream size : 115 MiB (14%)
    Language : English
    Default : No
    Alternate group : 1

    Text
    ID : 4
    Format : Timed Text
    Muxing mode : sbtl
    Codec ID : tx3g
    Duration : 12 min
    Duration_FirstFrame : 12 min
    Bit rate mode : Variable
    Bit rate : 1 b/s
    Stream size : 83.0 Bytes (0%)
    Title : Forced / Forced
    Language : Russian
    Default : Yes
    Forced : No
    Alternate group : 3



    Скриншоты:
    скриншот   скриншот   скриншот   скриншот   скриншот   скриншот   скриншот  
    скриншот  

    Раздача ведётся путём добавления новых серий. Добавлена 23 серия (26.05.2017).Просьба перекачать торрент файл.

    kino.freetor.icu



  • Скачать Стрела через торрент https://pic1.kartinco.top/images/10/yddos.jpg Скачать, смотреть онлайн Стрела бесплантно в хорошем качестве qw.png После кораблекрушения плейбой миллиардер Оливер Куин пропадает и считается погибшим в течение пяти лет, после чего его ... 9.3 10 30
    Info! Золотая раздача, скачанное не засчитывается.
    Торрент: Зарегистрирован [2017-05-26 01:26] · скачан: 160 раз
    Статус: √ проверено
    Размер: 18.44 GB
    Как cкачать? Как скачать Стрела через торрент | UTorrent



    Последний раз редактировалось: GEKADOL (2017-05-26 01:26), всего редактировалось 29 раз(а)

    28-11-2019 20:33  

    Отключить всю рекламу на сайте

    08-10-2016 03:29 Стрела Скачать торрент  

    envykino.freetor.icu



    08-10-2016 03:55 Стрела Скачать торрент  

    Прикольный фильм kino.freetor.icu



    11-12-2016 06:30 Стрела Скачать торрент  

    GEKADOL, Просьба ко всем заливающим и проверяющим.
    Исключить при оформлении данный бб код.
    Код:

    http://prntscr.com/c6wz9g
    Чаще его используют в разделе кино для отчета МИ
    http://prntscr.com/c6wwr5
    Его наличие или отсутствие никак не влияет на информацию, а вот на сам сайт имеет. Когда его много, не есть хорошо и страницы порой дольше грузит.

    сколько можно уже говорить?
    скриншот  kino.freetor.icu



    17-12-2016 09:21 Стрела Скачать торрент  

    В 9 серии где расово-несовместимые глиномесы расстались, я даже пустил слезу kino.freetor.icu



    08-02-2017 21:16 Стрела Скачать торрент  

    О, а чо все еще снимают, а кого там щас Олли тренирует?kino.freetor.icu



    19-02-2017 06:42 Стрела Скачать торрент  

    Механик писал(а):

    О, а чо все еще снимают, а кого там щас Олли тренирует?

    Руку свою kino.freetor.icu



      Дорогой пользователь! Огромная просьба, поблагодарите релизера, оцените раздачу и оставьте свои комментарий, если Вы скачали Стрела через торрент бесплатно!
      Комментировать посты могут только пользователи прошедшие не сложную регистрацию
      Показать сообщения:    

      Стрела через торрент
      Скачать бесплатно Стрела
      Стрела скачать торрент
      Стрела смотреть онлайн
      Cкачать фильм Стрела бесплатно
      Стрела скачать торрент в хорошем качестве
      Стрела смотреть онлайн бесплатно в хорошем качестве


      Вы не можете начинать темы
      Вы не можете отвечать на сообщения
      Вы не можете редактировать свои сообщения
      Вы не можете удалять свои сообщения
      Вы не можете голосовать в опросах
      Вы не можете прикреплять файлы к сообщениям
      Вы можете скачивать файлы