Лицензия

MVO

1

1 сезон

Лицензия

Лицензия

13

MVO

1 сезон

Deluxe Edition

pack

Рекомендуем

30

Repack

ВАЖНО

ВАЖНО

Ghostwire

RePack

jed

RePack

fifa19

RePack

RDR2

RePack

NEED FOR SPEED™ PAYBACK

RePack

Кинопоиск HD

 Острые козырьки 6 сезон

6 сезон

FAR CRY 6

RePack

Лицензия

MVO

1

1 сезон

1 сезон

Лицензия

  

Любовь Надежды (1-4 серии из 4) (Юсуп (Юсуф) Разыков) [2010 г., мелодрама, SATRip]

Любовь Надежды через торрент kino.freetor.icu

Размер: 2.15 GB | Добавлен: 11 лет назад | Торрент скачан:96 раз
Смотреть онлайн Любовь Надежды | Скачать   

22-10-2010 10:43 Любовь Надежды Скачать торрент  

Любовь Надежды (1-4 серии из 4)

Год выпуска: 2010
Страна: Россия (Кинокомпания "Тесей" и продюсерский центр "Фабула" по заказу РТР)
Жанр: мелодрама
Продолжительность: 00:45:00 (серия)

Режиссер: Юсуп (Юсуф) Разыков
Продюссер: Егор Юзбашев
Сценарий: Алексей Слаповский

В ролях: Наталья Антонова (II), Кирилл Гребенщиков, Алика (Алла) Смехова, Иван Рыжиков, Полина Сыркина, Александр Гиренок, Артур Федорович, Евгений Ивкович, Ольга Рептух, Светлана Никифорова, Александр Суцковер, Алёна Козырева, Андрей Олефиренко, Алена Иванникова, Александр Бранкевич, Валерия Арланова

Описание: Надежда живет в небольшом городке. Занимается любимым делом – театральной студией в Доме культуры. В город приезжает новый мэр, который оказывается бывшим одноклассником героини. Он был влюблен в нее в школьные годы, и чувства не остыли до сих пор. Градоначальник намерен добиться взаимности любыми средствами, вплоть до увольнения любимой с работы и преследования ее дочери...

Доп. информация:
Полное имя :Любовь Надежды\Любовь Надежды.avi
Формат : AVI
Формат/Информация : Audio Video Interleave
Размер файла : 552 MiB
Продолжительность : 45mn 5s
Общий поток : 1 711 Kbps
Программа кодирования : VirtualDubMod 1.5.10.2 (build 2540/release)
Библиотека кодирования : VirtualDubMod build 2540/release

Video
Идентификатор : 0
Формат : MPEG-4 Visual
Профайл формата : Advanced Simple@L5
Параметры BVOP формата : Yes
Параметры QPel формата : No
Параметры GMC формата : No warppoints
Параметры матрицы формата : Default (MPEG)
Режим смешивания : Packed bitstream
Идентификатор кодека : XVID
Идентификатор кодека/Подсказка : XviD
Продолжительность : 45mn 5s
Битрейт : 1 574 Kbps
Ширина : 704 pixels
Высота : 400 pixels
Соотношение кадра : 16:9
Частота кадров : 25.000 fps
ColorSpace : YUV
ChromaSubsampling : 4:2:0
BitDepth/String : 8 bits
Тип развёртки : Progressive
Бит/(Пиксели*Кадры) : 0.224
Размер потока : 508 MiB (92%)
Библиотека кодирования : XviD 1.3.0.dev55

Audio
Идентификатор : 1
Формат : MPEG Audio
Версия формата : Version 1
Профайл формата : Layer 3
Идентификатор кодека : 55
Идентификатор кодека/Подсказка : MP3
Продолжительность : 45mn 5s
Вид битрейта : Constant
Битрейт : 128 Kbps
Канал(ы) : 2 channels
Частота : 48.0 KHz
Размер потока : 41.3 MiB (7%)
Выравнивание : Aligned on interleaves
Продолжительность промежутка : 40 ms (1.00 video frame)
Время предзагрузки промежутка : 504 ms
Библиотека кодирования : LAME3.98r
Настройки программы : -m s -V 4 -q 2 -lowpass 17 -b 128~1573 kbps avg, 0.22 bit/pixel
Качество: SATRip
Формат: AVI
Видео кодек: XviD
Аудио кодек: MP3
Видео: 704x400 (1.76:1), 25 fps, XviD~1573 kbps avg,0.22 bit/pixel
Аудио: 48kHz, MPEG Layer 3, 2 ch, ~128.00 kbps

скриншот  скриншот  скриншот  



Скачать Любовь Надежды через торрент http://s004.radikal.ru/i205/1010/13/8b35b6971b31.jpg Скачать, смотреть онлайн Любовь Надежды бесплантно в хорошем качестве Описание: Надежда живет в небольшом городке. Занимается любимым делом – театральной студией в Доме культуры. В город приезжает новый мэр, ... 4.4 10 11
Info! Золотая раздача, скачанное не засчитывается.
Торрент: Зарегистрирован [2010-10-22 10:43] · скачан: 96 раз
Статус: √ проверено
Размер: 2.15 GB
Как cкачать? Как скачать Любовь Надежды через торрент | UTorrent




Последний раз редактировалось: Ragazzo (2010-10-22 10:55), всего редактировалось 1 раз

28-11-2019 20:33  

Отключить вcю реклaмy на сайте

22-10-2010 10:53 Любовь Надежды Скачать торрент  

spasibo posmotrim sto za serial



22-10-2010 16:37 Любовь Надежды Скачать торрент  

Спасибки, оценим!!!



    Дорогой пользователь! Огромная просьба, поблагодарите релизера, оцените раздачу и оставьте свои комментарий, если Вы скачали Любовь Надежды через торрент бесплатно!!
    Комментировать посты могут только пользователи прошедшие не сложную регистрацию
    Показать сообщения:    


    Любовь Надежды через торрент
    Скачать бесплатно Любовь Надежды
    Любовь Надежды скачать торрент
    Любовь Надежды смотреть онлайн
    Cкачать фильм Любовь Надежды бесплатно
    Любовь Надежды скачать торрент в хорошем качестве
    Любовь Надежды смотреть онлайн бесплатно в хорошем качестве
    Вы не можете начинать темы
    Вы не можете отвечать на сообщения
    Вы не можете редактировать свои сообщения
    Вы не можете удалять свои сообщения
    Вы не можете голосовать в опросах
    Вы не можете прикреплять файлы к сообщениям
    Вы можете скачивать файлы