Anonymous, добрый день, присоединяйтесь к нам в Telegram!, здесь всегда актуальный адрес сайта, оперативная поддержка и многое другое!

>

5.6

iTunes

7.4

iTunes

7.9

MVO

1

7.7

1 сезон

6.8

iTunes

7.3

1 сезон

13

6.7

1 сезон

8.3

RePack

30

ULTIMATE

pack

9.9

Лицензия

ВАЖНО

ИГРА 18+

pack

7.3

RePack

MK11

7.7

RePack

jed

7.8

RePack

fifa19

8.5

RePack

RDR2

RePack

NEED FOR SPEED™ PAYBACK

4 сезон

9 сезон

Бесстыжие 9 сезон

Все сериалы

все сериалы на PB.wtf

RePack

FAR CRY 5

Anonymous, добрый день, мы катастрофически не успеваем собрать деньги на оплату серверов, помогите нам пожалуйста 5,10,15р., для нас важна любая помощь . В качестве благодарности мы отключим Вам всю рекламу на сайте (укажите свой ник в строку Ваше имя)!

×
  
Magnet ссылка

Стрела / Arrow / Сезон: 6 / Серии: 1-23 из 23 (Дэвид Баррет, Дэвид Наттер) [2017, фантастика, боевик, драма, детектив, приключения, WEB-DLRip] MVO [Jaskier] kino.freetor.icu

Стрела через торрент kino.freetor.icu

Размер: 11.24 GB | Добавлен: 3 года 5 мес. назад | Торрент скачан:98 раз
Смотреть онлайн Стрела | Скачать    Ребята, помогите собрать деньги на оплату серверов!!!

15-10-2017 12:26 Стрела Скачать торрент  

Стрела / Arrow
Информация о фильме:

Название: Стрела
Оригинальное название: Arrow
Год выпуска: 2017
Страна: США
Жанр: фантастика, боевик, драма, детектив, приключения
Продолжительность: ~ 00:43:00
Перевод: Профессиональный (многоголосый) - Jaskier
Субтитры: отсутствуют
Присутствует звуковая реклама.

Режиссер: Дэвид Баррет, Дэвид Наттер

rating

В ролях:

Стивен Амелл, Кэти Кэссиди, Колин Доннелл, Дэвид Рэмси, Уилла Холлэнд, Сюзанна Томпсон, Пол Блекторн, Колин Сэлмон, Эмили Бетт Рикардс, Энни Айлонзех, Себастьян Данн, Байрон Манн, Роджер Р. Кросс, Мэррет Грин, Ли Винсент, Джон Барроумен, Лесли Ивен

Описание:

После пяти лет, проведенных на одном из необитаемых островов юго-восточной Азии, молодой и дерзкий миллиардер Оливер Куин возвращается домой другим человеком. Все это время все считали его погибшим в результате кораблекрушения. Однако, он оказался единственным из членов экипажа затонувшего судна, кому не просто удалось выжить... Внешние или внутренние обстоятельства превратили его в совершенно другого человека, правда, Оливер отчего-то не спешит предъявить себя в новом качестве общественности.

Информация о файле:

Качество: WEB-DLRip
Формат: AVI
Видео кодек: XviD
Аудио кодек: MP3

Видео: ~ 1400 kbps, 720x400
Аудио#1: RU: MP3, 2 ch, 128 kbps
Аудио#2: EN: MP3, 2 ch, 128 kbps


скриншот   скриншот   скриншот  

Общее
Полное имя : D:\торреннты\Arrow. Season 6 (WEB-DLRip l 400p l Jaskier)\Arrow.S06E01.WEB-DLRip.Rus.Eng.Jaskier.avi
Формат : AVI
Формат/Информация : Audio Video Interleave
Размер файла : 500 Мбайт
Продолжительность : 42 м. 23 с.
Общий поток : 1651 Кбит/сек
Программа кодирования : VirtualDubMod 1.5.10.3 | www.virtualdub-fr.org || (build 2550/release)
Библиотека кодирования : VirtualDubMod build 2550/release

Видео
Идентификатор : 0
Формат : MPEG-4 Visual
Профиль формата : Advanced Simple@L5
Параметр BVOP формата : 1
Параметр QPel формата : Нет
Параметр GMC формата : Без точки перехода
Параметр матрицы формата : Default (MPEG)
Идентификатор кодека : XVID
Идентификатор кодека/Подсказка : XviD
Продолжительность : 42 м. 23 с.
Битрейт : 1381 Кбит/сек
Ширина : 720 пикселей
Высота : 400 пикселей
Соотношение сторон : 16:9
Частота кадров : 23,976 (23976/1000) кадра/сек
Цветовое пространство : YUV
Субдискретизация насыщенности : 4:2:0
Битовая глубина : 8 бит
Тип развёртки : Прогрессивная
Метод сжатия : С потерями
Бит/(Пиксели*Кадры) : 0.200
Размер потока : 419 Мбайт (84%)
Библиотека кодирования : XviD 73

Аудио #1
Идентификатор : 1
Формат : MPEG Audio
Версия формата : Version 1
Профиль формата : Layer 3
Режим : Joint stereo
Расширение режима : MS Stereo
Идентификатор кодека : 55
Идентификатор кодека/Подсказка : MP3
Продолжительность : 42 м. 23 с.
Вид битрейта : Постоянный
Битрейт : 128 Кбит/сек
Каналы : 2 канала
Частота : 48,0 КГц
Метод сжатия : С потерями
Размер потока : 38,8 Мбайт (8%)
Выравнивание : Соединение по промежуткам
Продолжительность промежутка : 42 мс. (1,00 видеокадр)
Время предзагрузки промежутка : 504 мс.

Аудио #2
Идентификатор : 2
Формат : MPEG Audio
Версия формата : Version 1
Профиль формата : Layer 3
Режим : Joint stereo
Расширение режима : MS Stereo
Идентификатор кодека : 55
Идентификатор кодека/Подсказка : MP3
Продолжительность : 42 м. 23 с.
Вид битрейта : Постоянный
Битрейт : 128 Кбит/сек
Каналы : 2 канала
Частота : 48,0 КГц
Метод сжатия : С потерями
Размер потока : 38,8 Мбайт (8%)
Выравнивание : Соединение по промежуткам
Продолжительность промежутка : 42 мс. (1,00 видеокадр)
Время предзагрузки промежутка : 504 мс.

Когда раздача ведётся путём добавления новых серий, при каждом добавлении создётся новый торрент. Чтобы начать докачку новой серии, пользователям необходимо сделать следующее:
(1) остановить скачивание,
(2) удалить старый торрент у себя из клиента (старые серии удалять не надо),
(3) скачать новый торрент и запустить его у себя в клиенте вместо старого, при этом указать клиенту путь в старую папку, куда и должно происходить скачивание новых серий.
Ваш клиент при этом должен произвести хеширование (проверку) старой папки (если не производит сам - помогите ему сделать это), и будет докачивать только те серии, которых у вас ещё нет. Старые серии при этом не удаляются, а продолжают раздаваться!
Eсли вы уже удалили старые серии, то предотвратить повторную закачку старых серий можно, отжав галочку в соответсвующих местах при запуске нового торрента. По возможности, желательно не удалять старые серии как можно дольше, чтобы релизёр не столько продолжал раздавать старые серии, а смог сконцентрироваться на новых.
kino.freetor.icu



Скачать Стрела через торрент http://s019.radikal.ru/i630/1710/e0/3f050fbc5f73.png Скачать, смотреть онлайн Стрела бесплантно в хорошем качестве Описание: После пяти лет, проведенных на одном из необитаемых островов юго-восточной Азии, молодой и дерзкий миллиардер Оливер Куин ... 9 10 9
Info! Золотая раздача, скачанное не засчитывается.
Торрент: Зарегистрирован [2018-05-21 01:37] · скачан: 98 раз
Статус: √ проверено
Размер: 11.24 GB
Как cкачать? Как скачать Стрела через торрент | UTorrent

% Раздел Тема Автор DL S | L
Стрела [ 26.73 GB ] Стрела / Arrow / Сезон: 6 / Серии: 1-23 из 23 [2017 WEB-DL 720p] MVO [Jaskier] bober100 Скачать
1 | 0
Стрела [ 40.51 GB ] Стрела / Arrow / Сезон: 6 / Серии: 1-23 из 23 [2017 WEB-DL 1080p] MVO [NewStudio] bober100 Скачать
1 | 0
Стрела [ 11.82 GB ] Стрела / Arrow / Сезон: 6 / Серии 1-22 из 23 [2017 WEB-DLRip] MVO [NewStudio] GEKADOL Скачать
1 | 0


Последний раз редактировалось: bober100 (2018-05-21 01:37), всего редактировалось 12 раз(а)

28-11-2019 20:33  

Отключить всю рекламу на сайте

15-10-2017 12:31 Стрела Скачать торрент  

Фига се, эту хрень ещё не закрыли?kino.freetor.icu



22-10-2017 12:21 Стрела Скачать торрент  

sokol_ok писал(а):

Фига се, эту хрень ещё не закрыли?

Давно такой же вопрос мучает. Наитупейший сериал. Бросил на начале 3 сезона (нервы не выдержали).kino.freetor.icu



05-11-2017 19:11 Стрела Скачать торрент  

sokol_ok писал(а):

Фига се, эту хрень ещё не закрыли?

может рот свой прикроешь?!kino.freetor.icu



16-11-2017 18:21 Стрела Скачать торрент  

RA-69, может не будете переходить на личности и грубить, уважаемый?kino.freetor.icu



07-02-2018 19:45 Стрела Скачать торрент  

Поддерживаю, сериал просто после 3- го сезона отврат полный. Флэш после 1-го сезона то же самое практически, ну 2-ой сезон ещё хоть как-то.kino.freetor.icu



    Дорогой пользователь! Огромная просьба, поблагодарите релизера, оцените раздачу и оставьте свои комментарий, если Вы скачали Стрела через торрент бесплатно!
    Комментировать посты могут только пользователи прошедшие не сложную регистрацию
    Показать сообщения:    

    Стрела через торрент
    Скачать бесплатно Стрела
    Стрела скачать торрент
    Стрела смотреть онлайн
    Cкачать фильм Стрела бесплатно
    Стрела скачать торрент в хорошем качестве
    Стрела смотреть онлайн бесплатно в хорошем качестве


    Вы не можете начинать темы
    Вы не можете отвечать на сообщения
    Вы не можете редактировать свои сообщения
    Вы не можете удалять свои сообщения
    Вы не можете голосовать в опросах
    Вы не можете прикреплять файлы к сообщениям
    Вы можете скачивать файлы