Anonymous, доброй ночи, присоединяйтесь к нам в Telegram!, здесь всегда актуальный адрес сайта, оперативная поддержка и многое другое!

>

5.6

iTunes

7.4

iTunes

5.7

MVO

1

7.7

1 сезон

6.8

iTunes

7.3

1 сезон

13

6.7

1 сезон

8.3

RePack

30

ULTIMATE

pack

9.9

Лицензия

ВАЖНО

ИГРА 18+

pack

7.3

RePack

MK11

7.7

RePack

jed

7.8

RePack

fifa19

8.5

RePack

RDR2

RePack

NEED FOR SPEED™ PAYBACK

4 сезон

9 сезон

Бесстыжие 9 сезон

Все сериалы

все сериалы на PB.wtf

RePack

FAR CRY 5

Anonymous, доброй ночи, мы катастрофически не успеваем собрать деньги на оплату серверов, помогите нам пожалуйста 5,10,15р., для нас важна любая помощь . В качестве благодарности мы отключим Вам всю рекламу на сайте (укажите свой ник в строку Ваше имя)!

×
  
Magnet ссылка

Смоки Мо - Младший (2013) / FLAC (image + .cue) / lossless / Rap kino.freetor.icu

Смоки Мо - Младший через торрент kino.freetor.icu

Размер: 296 MB | Добавлен: 3 года 10 мес. назад | Торрент скачан:33 раза
Смотреть онлайн Смоки Мо - Младший | Скачать    Ребята, помогите собрать деньги на оплату серверов!!!

26-11-2017 09:37 Смоки Мо - Младший Скачать торрент  

Смоки Мо - Младший

Страна: Россия
Жанр: Rap
Год выпуска: 2013
Формат: FLAC (image + .cue)
Битрейт аудио: lossless
Длительность: 00:44:19
01. Начало игры, часть 4 (Младший)
02. Было и было
03. Бабочки (Скит)
04. Бабочки (feat. Глюк'oZa)
05. Небесные сны
06. Будущее любит нас
07. Алиса
08. Горсть лепестков
09. Крепкий чай (feat. Basta)
10. Оставь это нам
11. Чувствуй это (feat. Tati)
12. Искать правду (feat. Tati)
13. Антидепрессант

Exact Audio Copy V1.0 beta 3 from 29. August 2011

Отчёт EAC об извлечении, выполненном 22. июня 2013, 13:07

Смоки Мо / Младший

Дисковод: Optiarc DVD RW AD-7280S Adapter: 0 ID: 0

Режим чтения : Достоверность
Использование точного потока : Да
Отключение кэша аудио : Да
Использование указателей C2 : Нет

Коррекция смещения при чтении : 48
Способность читать области Lead-in и Lead-out : Нет
Заполнение пропущенных сэмплов тишиной : Да
Удаление блоков с тишиной в начале и конце : Нет
При вычислениях CRC использовались нулевые сэмплы : Да
Интерфейс : Встроенный Win32-интерфейс для Win NT/2000
Обработка зазоров : Добавлено к предыдущему треку

Выходной формат : Пользовательский кодировщик
Выбранный битрейт : 128 kBit/s
Качество : Высокий
Добавление ID3-тега : Нет
Утилита сжатия : C:\Program Files (x86)\FLAC\flac.exe
Дополнительные параметры : -V -8 -T "Genre=%genre%" -T "Artist=%artist%" -T "Title=%title%" -T "Album=%albumtitle%" -T "Date=%year%" -T "Tracknumber=%tracknr%" -T "Comment=%comment%" %source%

TOC извлечённого CD

Трек | Старт | Длительность | Начальный сектор | Конечный сектор
---------------------------------------------------------------------
1 | 0:00.00 | 2:16.34 | 0 | 10233
2 | 2:16.34 | 4:04.60 | 10234 | 28593
3 | 6:21.19 | 0:25.51 | 28594 | 30519
4 | 6:46.70 | 4:11.20 | 30520 | 49364
5 | 10:58.15 | 2:42.37 | 49365 | 61551
6 | 13:40.52 | 3:54.24 | 61552 | 79125
7 | 17:35.01 | 3:20.00 | 79126 | 94125
8 | 20:55.01 | 3:12.11 | 94126 | 108536
9 | 24:07.12 | 5:19.09 | 108537 | 132470
10 | 29:26.21 | 3:48.35 | 132471 | 149605
11 | 33:14.56 | 4:16.69 | 149606 | 168874
12 | 37:31.50 | 4:24.21 | 168875 | 188695
13 | 41:55.71 | 2:23.30 | 188696 | 199450

Трек 1

Имя файла D:\не удалять!!\Смоки Мо - Младший\01 Начало игры, часть 4 (младший).wav

Длина предзазора 0:00:02.00

Пиковый уровень 100.0 %
Скорость извлечения 1.7 X
Качество трека 99.9 %
CRC теста D13225F3
CRC копии D13225F3
Трек не обнаружен в базе AccurateRip
Копирование... OK

Трек 2

Имя файла D:\не удалять!!\Смоки Мо - Младший\02 Было и было.wav

Пиковый уровень 99.8 %
Скорость извлечения 2.5 X
Качество трека 100.0 %
CRC теста 395ABA03
CRC копии 395ABA03
Трек не обнаружен в базе AccurateRip
Копирование... OK

Трек 3

Имя файла D:\не удалять!!\Смоки Мо - Младший\03 Бабочки (Скит).wav

Пиковый уровень 57.6 %
Скорость извлечения 1.2 X
Качество трека 100.0 %
CRC теста 0420AF1F
CRC копии 0420AF1F
Трек не обнаружен в базе AccurateRip
Копирование... OK

Трек 4

Имя файла D:\не удалять!!\Смоки Мо - Младший\04 Бабочки (feat. Глюк'oZa).wav

Пиковый уровень 100.0 %
Скорость извлечения 2.8 X
Качество трека 100.0 %
CRC теста 792387F6
CRC копии 792387F6
Трек не обнаружен в базе AccurateRip
Копирование... OK

Трек 5

Имя файла D:\не удалять!!\Смоки Мо - Младший\05 Небесные сны.wav

Пиковый уровень 100.0 %
Скорость извлечения 2.8 X
Качество трека 100.0 %
CRC теста 705F8EEE
CRC копии 705F8EEE
Трек не обнаружен в базе AccurateRip
Копирование... OK

Трек 6

Имя файла D:\не удалять!!\Смоки Мо - Младший\06 Будущее любит нас.wav

Пиковый уровень 100.0 %
Скорость извлечения 3.1 X
Качество трека 100.0 %
CRC теста 3DEFDC21
CRC копии 3DEFDC21
Трек не обнаружен в базе AccurateRip
Копирование... OK

Трек 7

Имя файла D:\не удалять!!\Смоки Мо - Младший\07 Алиса.wav

Пиковый уровень 100.0 %
Скорость извлечения 3.2 X
Качество трека 100.0 %
CRC теста 72FC1A0E
CRC копии 72FC1A0E
Трек не обнаружен в базе AccurateRip
Копирование... OK

Трек 8

Имя файла D:\не удалять!!\Смоки Мо - Младший\08 Горсть лепестков.wav

Пиковый уровень 92.0 %
Скорость извлечения 3.4 X
Качество трека 100.0 %
CRC теста 43DC1FA1
CRC копии 43DC1FA1
Трек не обнаружен в базе AccurateRip
Копирование... OK

Трек 9

Имя файла D:\не удалять!!\Смоки Мо - Младший\09 Крепкий чай (feat. Basta).wav

Пиковый уровень 100.0 %
Скорость извлечения 3.8 X
Качество трека 100.0 %
CRC теста 63521B75
CRC копии 63521B75
Трек не обнаружен в базе AccurateRip
Копирование... OK

Трек 10

Имя файла D:\не удалять!!\Смоки Мо - Младший\10 Оставь это нам.wav

Пиковый уровень 99.9 %
Скорость извлечения 3.9 X
Качество трека 100.0 %
CRC теста D094468C
CRC копии D094468C
Трек не обнаружен в базе AccurateRip
Копирование... OK

Трек 11

Имя файла D:\не удалять!!\Смоки Мо - Младший\11 Чувствуй это (feat. Tati).wav

Пиковый уровень 99.8 %
Скорость извлечения 4.0 X
Качество трека 100.0 %
CRC теста 74DA3C04
CRC копии 74DA3C04
Трек не обнаружен в базе AccurateRip
Копирование... OK

Трек 12

Имя файла D:\не удалять!!\Смоки Мо - Младший\12 Искать правду (feat. Tati).wav

Пиковый уровень 99.8 %
Скорость извлечения 3.8 X
Качество трека 99.9 %
CRC теста 75DF39A6
CRC копии 75DF39A6
Трек не обнаружен в базе AccurateRip
Копирование... OK

Трек 13

Имя файла D:\не удалять!!\Смоки Мо - Младший\13 Антидепрессант.wav

Пиковый уровень 100.0 %
Скорость извлечения 3.3 X
Качество трека 99.9 %
CRC теста E2576C0A
CRC копии E2576C0A
Трек не обнаружен в базе AccurateRip
Копирование... OK

Ни одного трека нет в базе AccurateRip

Ошибок не произошло

Конец отчёта

---- CUETools DB Plugin V2.1.3

[CTDB TOCID: ll4vQG9Rvp.SmN0Idjmgj.ACqSg-] disk not present in database, Submit result: ll4vQG9Rvp.SmN0Idjmgj.ACqSg- has been uploaded

==== Контрольная сумма отчёта 723FAF677E149BCDD85A9D3ECA38A2502699381B03D0D026CAF25EEA7CD6010F ====

REM GENRE Rap
REM DATE 2013
REM DISCID B80A630D
REM COMMENT "ExactAudioCopy v1.0b3"
PERFORMER "Смоки Мо"
TITLE "Младший"
FILE "01 Начало игры, часть 4 (младший).wav" WAVE
TRACK 01 AUDIO
TITLE "Начало игры, часть 4 (младший)"
PERFORMER "Смоки Мо"
INDEX 01 00:00:00
FILE "02 Было и было.wav" WAVE
TRACK 02 AUDIO
TITLE "Было и было"
PERFORMER "Смоки Мо"
INDEX 01 00:00:00
FILE "03 Бабочки (Скит).wav" WAVE
TRACK 03 AUDIO
TITLE "Бабочки (Скит)"
PERFORMER "Смоки Мо"
INDEX 01 00:00:00
FILE "04 Бабочки (feat. Глюк'oZa).wav" WAVE
TRACK 04 AUDIO
TITLE "Бабочки (feat. Глюк'oZa)"
PERFORMER "Смоки Мо"
INDEX 01 00:00:00
FILE "05 Небесные сны.wav" WAVE
TRACK 05 AUDIO
TITLE "Небесные сны"
PERFORMER "Смоки Мо"
INDEX 01 00:00:00
FILE "06 Будущее любит нас.wav" WAVE
TRACK 06 AUDIO
TITLE "Будущее любит нас"
PERFORMER "Смоки Мо"
INDEX 01 00:00:00
FILE "07 Алиса.wav" WAVE
TRACK 07 AUDIO
TITLE "Алиса"
PERFORMER "Смоки Мо"
INDEX 01 00:00:00
FILE "08 Горсть лепестков.wav" WAVE
TRACK 08 AUDIO
TITLE "Горсть лепестков"
PERFORMER "Смоки Мо"
INDEX 01 00:00:00
FILE "09 Крепкий чай (feat. Basta).wav" WAVE
TRACK 09 AUDIO
TITLE "Крепкий чай (feat. Basta)"
PERFORMER "Смоки Мо"
INDEX 01 00:00:00
FILE "10 Оставь это нам.wav" WAVE
TRACK 10 AUDIO
TITLE "Оставь это нам"
PERFORMER "Смоки Мо"
INDEX 01 00:00:00
FILE "11 Чувствуй это (feat. Tati).wav" WAVE
TRACK 11 AUDIO
TITLE "Чувствуй это (feat. Tati)"
PERFORMER "Смоки Мо"
INDEX 01 00:00:00
FILE "12 Искать правду (feat. Tati).wav" WAVE
TRACK 12 AUDIO
TITLE "Искать правду (feat. Tati)"
PERFORMER "Смоки Мо"
INDEX 01 00:00:00
FILE "13 Антидепрессант.wav" WAVE
TRACK 13 AUDIO
TITLE "Антидепрессант"
PERFORMER "Смоки Мо"
INDEX 01 00:00:00

kino.freetor.icu



Скачать Смоки Мо - Младший через торрент http://i46.fastpic.ru/big/2013/0622/43/a15fab78237a4c2e3cf05655162e2b43.jpg Скачать, смотреть онлайн Смоки Мо - Младший бесплантно в хорошем качестве Треклист Начало игры, часть 4 (Младший) Было и было Бабочки (Скит) Бабочки (feat. Глюк'oZa) Небесные сны Будущее любит ... 10 10 2
Торрент: Зарегистрирован [2017-11-26 09:40] · скачан: 33 раз
Статус: √ проверено
Размер: 296 MB
Как cкачать? Как скачать Смоки Мо - Младший через торрент | UTorrent

28-11-2019 20:33  

Отключить всю рекламу на сайте

    Дорогой пользователь! Огромная просьба, поблагодарите релизера, оцените раздачу и оставьте свои комментарий, если Вы скачали Смоки Мо - Младший через торрент бесплатно!
    Комментировать посты могут только пользователи прошедшие не сложную регистрацию
    Показать сообщения:    

    Смоки Мо - Младший через торрент
    Скачать бесплатно Смоки Мо - Младший
    Смоки Мо - Младший скачать торрент
    Смоки Мо - Младший смотреть онлайн
    Cкачать фильм Смоки Мо - Младший бесплатно
    Смоки Мо - Младший скачать торрент в хорошем качестве
    Смоки Мо - Младший смотреть онлайн бесплатно в хорошем качестве


    Вы не можете начинать темы
    Вы не можете отвечать на сообщения
    Вы не можете редактировать свои сообщения
    Вы не можете удалять свои сообщения
    Вы не можете голосовать в опросах
    Вы не можете прикреплять файлы к сообщениям
    Вы можете скачивать файлы