Anonymous, доброй ночи, присоединяйтесь к нам в Telegram!, здесь всегда актуальный адрес сайта, оперативная поддержка и многое другое!

>

5.6

iTunes

7.4

iTunes

5.7

MVO

1

7.7

1 сезон

6.8

iTunes

7.3

1 сезон

13

6.7

1 сезон

8.3

RePack

30

ULTIMATE

pack

9.9

Лицензия

ВАЖНО

ИГРА 18+

pack

7.3

RePack

MK11

7.7

RePack

jed

7.8

RePack

fifa19

8.5

RePack

RDR2

RePack

NEED FOR SPEED™ PAYBACK

4 сезон

9 сезон

Бесстыжие 9 сезон

Все сериалы

все сериалы на PB.wtf

RePack

FAR CRY 5

Anonymous, доброй ночи, мы катастрофически не успеваем собрать деньги на оплату серверов, помогите нам пожалуйста 5,10,15р., для нас важна любая помощь . В качестве благодарности мы отключим Вам всю рекламу на сайте (укажите свой ник в строку Ваше имя)!

×
  
Magnet ссылка

Стрела / Arrow / Сезон: 6 / Серии: 1-23 из 23 (Дэвид Баррет, Дэвид Наттер) [2017, фантастика, боевик, драма, детектив, приключения, WEB-DL 1080p] MVO [NewStudio] kino.freetor.icu

Стрела через торрент kino.freetor.icu

Размер: 40.51 GB | Добавлен: 3 года 4 мес. назад | Торрент скачан:18 раз
Смотреть онлайн Стрела | Скачать    Ребята, помогите собрать деньги на оплату серверов!!!

27-05-2018 19:36 Стрела Скачать торрент  

Стрела / Arrow
Информация о фильме:

Название: Стрела
Оригинальное название: Arrow
Год выпуска: 2017 \(6 сезон\)
Страна: США / Berlanti Productions, Berlanti Television, DC Entertainment, DC Entertainment, Warner Bros. Television
Жанр: фантастика, боевик, драма, детектив, приключения
Продолжительность: ~ 00:43:00
Перевод: Профессиональный (многоголосый) |
Субтитры: отсутствуют
Примечание: Без рекламы!

Режиссер: Дэвид Баррет, Дэвид Наттер

rating

В ролях:

Стивен Амелл, Кэти Кэссиди, Колин Доннелл, Дэвид Рэмси, Уилла Холлэнд, Сюзанна Томпсон, Пол Блекторн, Колин Сэлмон, Эмили Бетт Рикардс, Энни Айлонзех, Себастьян Данн, Байрон Манн, Роджер Р. Кросс, Мэррет Грин, Ли Винсент, Джон Барроумен, Лесли Ивен

Описание:

После пяти лет, проведенных на одном из необитаемых островов юго-восточной Азии, молодой и дерзкий миллиардер Оливер Куин возвращается домой другим человеком. Все это время все считали его погибшим в результате кораблекрушения. Однако, он оказался единственным из членов экипажа затонувшего судна, кому не просто удалось выжить... Внешние или внутренние обстоятельства превратили его в совершенно другого человека, правда, Оливер отчего-то не спешит предъявить себя в новом качестве общественности.



Информация о файле:

Качество: WEB-DL 1080p
Формат: MKV

Видео: ~ 5300 kbps, 1912x1072 (16:9), 23.976 fps
Аудио#1 RU: AC3, 48 KHz, 6 ch, 384 kbps
Аудио#2 EN: AC3, 48 KHz, 6 ch, 384 kbps
скриншот   скриншот   скриншот  

Общее
Уникальный идентификатор : 241312300150355360116484270752078281681 (0xB58B0EF899E704E1AEF77351060CBBD1)
Полное имя : F:\Arrow (Season 06) Newstudio_1080p\Arrow.s06e01.WEBDL.1080p.NewStudio.TV.byVinT.mkv
Формат : Matroska
Версия формата : Version 4 / Version 2
Размер файла : 1,78 Гбайт
Продолжительность : 42 м. 23 с.
Общий поток : 6000 Кбит/сек
Дата кодирования : UTC 2018-01-30 14:26:24
Программа кодирования : mkvmerge v18.0.0 ('Apricity') 64-bit
Библиотека кодирования : libebml v1.3.5 + libmatroska v1.4.8

Видео
Идентификатор : 1
Формат : AVC
Формат/Информация : Advanced Video Codec
Профиль формата : High@L4
Параметр CABAC формата : Да
Параметр RefFrames формата : 4 кадра
Идентификатор кодека : V_MPEG4/ISO/AVC
Продолжительность : 42 м. 23 с.
Битрейт : 5333 Кбит/сек
Ширина : 1912 пикселей
Высота : 1072 пикселя
Соотношение сторон : 16:9
Режим частоты кадров : Постоянный
Частота кадров : 23,976 кадра/сек
Цветовое пространство : YUV
Субдискретизация насыщенности : 4:2:0
Битовая глубина : 8 бит
Тип развёртки : Прогрессивная
Бит/(Пиксели*Кадры) : 0.104
Размер потока : 1,51 Гбайт (85%)
Заголовок : Arrow.s06e01.WEBDL.1080p.NewStudio.TV.byVinT
Язык : English
Default : Да
Forced : Нет
Цветовой диапазон : Limited
Основные цвета : BT.709
Характеристики трансфера : BT.709
Коэффициенты матрицы : BT.709

Аудио #1
Идентификатор : 2
Формат : AC-3
Формат/Информация : Audio Coding 3
Расширение режима : CM (complete main)
Параметр Endianness формата : Big
Идентификатор кодека : A_AC3
Продолжительность : 42 м. 23 с.
Вид битрейта : Постоянный
Битрейт : 384 Кбит/сек
Каналы : 6 каналов
Расположение каналов : Front: L C R, Side: L R, LFE
Частота : 48,0 КГц
Частота кадров : 31,250 кадров/сек (1536 spf)
Метод сжатия : С потерями
Размер потока : 116 Мбайт (6%)
Заголовок : NewStudio.TV
Язык : Russian
Default : Да
Forced : Нет

Аудио #2
Идентификатор : 3
Формат : AC-3
Формат/Информация : Audio Coding 3
Расширение режима : CM (complete main)
Параметр Endianness формата : Big
Идентификатор кодека : A_AC3
Продолжительность : 42 м. 23 с.
Вид битрейта : Постоянный
Битрейт : 384 Кбит/сек
Каналы : 6 каналов
Расположение каналов : Front: L C R, Side: L R, LFE
Частота : 48,0 КГц
Частота кадров : 31,250 кадров/сек (1536 spf)
Метод сжатия : С потерями
Размер потока : 116 Мбайт (6%)
Заголовок : English
Язык : English
Default : Нет
Forced : Нет

kino.freetor.icu



Скачать Стрела через торрент http://i89.fastpic.ru/big/2017/1004/6d/1277b71754b9141cbb2c89760527326d.png Скачать, смотреть онлайн Стрела бесплантно в хорошем качестве Описание: После пяти лет, проведенных на одном из необитаемых островов юго-восточной Азии, молодой и дерзкий миллиардер Оливер Куин ... 10 10 4
Info! Золотая раздача, скачанное не засчитывается.
Торрент: Зарегистрирован [2018-05-27 19:36] · скачан: 18 раз
Статус: √ проверено
Размер: 40.51 GB
Как cкачать? Как скачать Стрела через торрент | UTorrent

% Раздел Тема Автор DL S | L
Стрела [ 26.73 GB ] Стрела / Arrow / Сезон: 6 / Серии: 1-23 из 23 [2017 WEB-DL 720p] MVO [Jaskier] bober100 Скачать
1 | 0
Стрела [ 11.24 GB ] Стрела / Arrow / Сезон: 6 / Серии: 1-23 из 23 [2017 WEB-DLRip] MVO [Jaskier] bober100 Скачать
1 | 0
Стрела [ 11.82 GB ] Стрела / Arrow / Сезон: 6 / Серии 1-22 из 23 [2017 WEB-DLRip] MVO [NewStudio] GEKADOL Скачать
1 | 0

28-11-2019 20:33  

Отключить всю рекламу на сайте

28-05-2018 08:22 Стрела Скачать торрент  

когда же его борьба уже закончится а?! kino.freetor.icu



    Дорогой пользователь! Огромная просьба, поблагодарите релизера, оцените раздачу и оставьте свои комментарий, если Вы скачали Стрела через торрент бесплатно!
    Комментировать посты могут только пользователи прошедшие не сложную регистрацию
    Показать сообщения:    

    Стрела через торрент
    Скачать бесплатно Стрела
    Стрела скачать торрент
    Стрела смотреть онлайн
    Cкачать фильм Стрела бесплатно
    Стрела скачать торрент в хорошем качестве
    Стрела смотреть онлайн бесплатно в хорошем качестве


    Вы не можете начинать темы
    Вы не можете отвечать на сообщения
    Вы не можете редактировать свои сообщения
    Вы не можете удалять свои сообщения
    Вы не можете голосовать в опросах
    Вы не можете прикреплять файлы к сообщениям
    Вы можете скачивать файлы