Anonymous, доброй ночи, присоединяйтесь к нам в Telegram!, здесь всегда актуальный адрес сайта, оперативная поддержка и многое другое!

>

5.6

iTunes

7.4

iTunes

5.7

MVO

1

7.7

1 сезон

6.8

iTunes

7.3

1 сезон

13

6.7

1 сезон

8.3

RePack

30

ULTIMATE

pack

9.9

Лицензия

ВАЖНО

ИГРА 18+

pack

7.3

RePack

MK11

7.7

RePack

jed

7.8

RePack

fifa19

8.5

RePack

RDR2

RePack

NEED FOR SPEED™ PAYBACK

4 сезон

9 сезон

Бесстыжие 9 сезон

Все сериалы

все сериалы на PB.wtf

RePack

FAR CRY 5

Anonymous, доброй ночи, мы катастрофически не успеваем собрать деньги на оплату серверов, помогите нам пожалуйста 5,10,15р., для нас важна любая помощь . В качестве благодарности мы отключим Вам всю рекламу на сайте (укажите свой ник в строку Ваше имя)!

×
  
Magnet ссылка

Стрела / Arrow / Сезон: 6 / Серии: 1-23 из 23 (Дэвид Баррет, Дэвид Наттер) [2017, фантастика, боевик, драма, детектив, приключения, WEB-DL 720p] MVO [Jaskier] kino.freetor.icu

Стрела через торрент kino.freetor.icu

Размер: 26.73 GB | Добавлен: 3 года 4 мес. назад | Торрент скачан:41 раз
Смотреть онлайн Стрела | Скачать    Ребята, помогите собрать деньги на оплату серверов!!!

31-05-2018 21:05 Стрела Скачать торрент  

Стрела / Arrow
Информация о фильме:

Название: Стрела
Оригинальное название: Arrow
Год выпуска: 2017
Страна: США
Жанр: фантастика, боевик, драма, детектив, приключения
Продолжительность: ~ 00:43:00
Перевод: Профессиональный (многоголосый) | Jaskier
Субтитры: | английские |
Присутствует звуковая реклама.

Режиссер: Дэвид Баррет, Дэвид Наттер

rating

В ролях:

Стивен Амелл, Кэти Кэссиди, Колин Доннелл, Дэвид Рэмси, Уилла Холлэнд, Сюзанна Томпсон, Пол Блекторн, Колин Сэлмон, Эмили Бетт Рикардс, Энни Айлонзех, Себастьян Данн, Байрон Манн, Роджер Р. Кросс, Мэррет Грин, Ли Винсент, Джон Барроумен, Лесли Ивен

Описание:

После пяти лет, проведенных на одном из необитаемых островов юго-восточной Азии, молодой и дерзкий миллиардер Оливер Куин возвращается домой другим человеком. Все это время все считали его погибшим в результате кораблекрушения. Однако, он оказался единственным из членов экипажа затонувшего судна, кому не просто удалось выжить... Внешние или внутренние обстоятельства превратили его в совершенно другого человека, правда, Оливер отчего-то не спешит предъявить себя в новом качестве общественности.

Информация о файле:

Качество: WEB-DL 720p
Формат: MKV
Видео кодек: H.264
Аудио кодек: AC3

Видео: ~ 3 500 kbps | 1280x720 (16:9)
Аудио#1 RU: AC3 | 48.0 KHz | 6 ch | 384 kbps
Аудио#2 EN: AC3 | 48.0 KHz | 6 ch | 384 kbps


скриншот   скриншот   скриншот  

Общее
Уникальный идентификатор : 211489236675632063096228686509717183674 (0x9F1B586B03D99385A1D51BB5FF7DDCBA)
Полное имя : F:\Arrow. Season 6 (WEB-DL l 720p l Jaskier)\Arrow.S06E01.720p.WEB-DL.DDP5.1.H.264-Jaskier.mkv
Формат : Matroska
Версия формата : Version 2
Размер файла : 1,27 Гбайт
Продолжительность : 42 м. 23 с.
Режим общего битрейта : Переменный
Общий поток : 4286 Кбит/сек
Дата кодирования : UTC 2017-10-14 19:58:34
Программа кодирования : mkvmerge v7.8.0 ('River Man') 32bit built on Apr 3 2015 12:11:22
Библиотека кодирования : libebml v1.3.1 + libmatroska v1.4.2

Видео
Идентификатор : 1
Формат : AVC
Формат/Информация : Advanced Video Codec
Профиль формата : High@L3.1
Параметр CABAC формата : Да
Параметр RefFrames формата : 5 кадров
Идентификатор кодека : V_MPEG4/ISO/AVC
Продолжительность : 42 м. 23 с.
Вид битрейта : Переменный
Битрейт : 3432 Кбит/сек
Максимальный битрейт : 4500 Кбит/сек
Ширина : 1280 пикселей
Высота : 720 пикселей
Соотношение сторон : 16:9
Режим частоты кадров : Постоянный
Частота кадров : 23,976 (24000/1001) кадра/сек
Цветовое пространство : YUV
Субдискретизация насыщенности : 4:2:0
Битовая глубина : 8 бит
Тип развёртки : Прогрессивная
Бит/(Пиксели*Кадры) : 0.155
Размер потока : 1,02 Гбайт (80%)
Язык : English
Default : Да
Forced : Нет
Цветовой диапазон : Limited
Основные цвета : BT.709
Характеристики трансфера : BT.709
Коэффициенты матрицы : BT.709

Аудио #1
Идентификатор : 2
Формат : AC-3
Формат/Информация : Audio Coding 3
Расширение режима : CM (complete main)
Параметр Endianness формата : Big
Идентификатор кодека : A_AC3
Продолжительность : 42 м. 23 с.
Вид битрейта : Постоянный
Битрейт : 384 Кбит/сек
Каналы : 6 каналов
Расположение каналов : Front: L C R, Side: L R, LFE
Частота : 48,0 КГц
Частота кадров : 31,250 кадров/сек (1536 spf)
Метод сжатия : С потерями
Размер потока : 116 Мбайт (9%)
Заголовок : Jaskier
Язык : Russian
Default : Да
Forced : Нет

Аудио #2
Идентификатор : 3
Формат : AC-3
Формат/Информация : Audio Coding 3
Расширение режима : CM (complete main)
Параметр Endianness формата : Big
Идентификатор кодека : A_AC3
Продолжительность : 42 м. 23 с.
Вид битрейта : Постоянный
Битрейт : 384 Кбит/сек
Каналы : 6 каналов
Расположение каналов : Front: L C R, Side: L R, LFE
Частота : 48,0 КГц
Частота кадров : 31,250 кадров/сек (1536 spf)
Метод сжатия : С потерями
Размер потока : 116 Мбайт (9%)
Язык : English
Default : Нет
Forced : Нет

Текст
Идентификатор : 4
Формат : UTF-8
Идентификатор кодека : S_TEXT/UTF8
Идентификатор кодека/Информация : UTF-8 Plain Text
Язык : English
Default : Нет
Forced : Нет

kino.freetor.icu



Скачать Стрела через торрент http://s019.radikal.ru/i630/1710/e0/3f050fbc5f73.png Скачать, смотреть онлайн Стрела бесплантно в хорошем качестве Описание: После пяти лет, проведенных на одном из необитаемых островов юго-восточной Азии, молодой и дерзкий миллиардер Оливер Куин ... 10 10 2
Info! Серебряная раздача, засчитывается только 50% скачанного.
Торрент: Зарегистрирован [2018-05-31 21:05] · скачан: 41 раз
Статус: √ проверено
Размер: 26.73 GB
Как cкачать? Как скачать Стрела через торрент | UTorrent

% Раздел Тема Автор DL S | L
Стрела [ 40.51 GB ] Стрела / Arrow / Сезон: 6 / Серии: 1-23 из 23 [2017 WEB-DL 1080p] MVO [NewStudio] bober100 Скачать
1 | 0
Стрела [ 11.24 GB ] Стрела / Arrow / Сезон: 6 / Серии: 1-23 из 23 [2017 WEB-DLRip] MVO [Jaskier] bober100 Скачать
1 | 0
Стрела [ 11.82 GB ] Стрела / Arrow / Сезон: 6 / Серии 1-22 из 23 [2017 WEB-DLRip] MVO [NewStudio] GEKADOL Скачать
1 | 0

28-11-2019 20:33  

Отключить всю рекламу на сайте

    Дорогой пользователь! Огромная просьба, поблагодарите релизера, оцените раздачу и оставьте свои комментарий, если Вы скачали Стрела через торрент бесплатно!
    Комментировать посты могут только пользователи прошедшие не сложную регистрацию
    Показать сообщения:    

    Стрела через торрент
    Скачать бесплатно Стрела
    Стрела скачать торрент
    Стрела смотреть онлайн
    Cкачать фильм Стрела бесплатно
    Стрела скачать торрент в хорошем качестве
    Стрела смотреть онлайн бесплатно в хорошем качестве


    Вы не можете начинать темы
    Вы не можете отвечать на сообщения
    Вы не можете редактировать свои сообщения
    Вы не можете удалять свои сообщения
    Вы не можете голосовать в опросах
    Вы не можете прикреплять файлы к сообщениям
    Вы можете скачивать файлы