Лицензия

MVO

1

1 сезон

Лицензия

Лицензия

13

MVO

1 сезон

Deluxe Edition

pack

Рекомендуем

30

Repack

ВАЖНО

ВАЖНО

Ghostwire

RePack

jed

RePack

fifa19

RePack

RDR2

RePack

NEED FOR SPEED™ PAYBACK

RePack

Кинопоиск HD

 Острые козырьки 6 сезон

6 сезон

FAR CRY 6

RePack

Лицензия

MVO

1

1 сезон

1 сезон

Лицензия

  

Псевдоним "Албанец" – 3 / Серии: 1 - 16 из 16 (Алексей Карелин) [2010, Боевик, криминальный фильм, DVB]

Псевдоним "Албанец" – 3 через торрент kino.freetor.icu

Размер: 29.2 GB | Добавлен: 11 лет назад | Торрент скачан:69 раз
Смотреть онлайн Псевдоним "Албанец" – 3 | Скачать   

06-12-2010 21:20 Псевдоним "Албанец" – 3 Скачать торрент  

Псевдоним "Албанец" – 3

Год выпуска: 2010
Страна: Россия
Жанр: Боевик, криминальный фильм
Продолжительность: ~ 00:45:00 серия
Перевод: Не требуется
Субтитры: Отсутствуют

Автор сценария: Андрей Житков.
Оператор-постановщик: Виктор Зубарев.
Композитор: Виталий Истомин.
Песню на стихи Леонида Филатова исполняет Егор Юзбашев.
Режиссер: Алексей Карелин
Продюссер: Егор Юзбашев
Производство: продюсерский центр «Фабула» по заказу НТВ, 2010 г.

Мировой рейтинг IMDB


Описание: Продолжение знакового сериала, в котором в память о погибшем друге одноименный псевдоним возьмет Александр Воронков — однокурсник Виктора Албанцева по военному училищу. Его роль исполнит известный киноактер Олег Штефанко — воплощение настоящей мужественности на отечественном экране. Именно ему предстоит продолжить дело своего боевого товарища и отомстить его врагам!
Саша Воронков приезжает в дом своего старинного друга Виктора Албанцева как раз в тот момент, когда беременной жене Виктора сообщают по телефону, что ее муж погиб. Воронков берется за расследование обстоятельств гибели товарища. В этом ему помогает Куратор из органов, тоже хорошо знавший и любивший Албанца. Они выходят на след бывших работников «конторы», подкупленных преступным авторитетом Михалычем и его братом. Вскоре выясняется, что убийство было местью Михалыча Албанцу, посадившему его в тюрьму.
В борьбе с разветвленной преступной сетью Воронкову помогают бывший сотрудник «конторы» — неугомонный Григорьев — и работница кафе Лена, в которую Саша влюбляется с первого взгляда. Победив «клан» Михалыча, Воронков берет себе псевдоним Албанец и приступает к опасным и рискованным заданиям, продолжая благородное дело погибшего друга.

В ролях: Олег Штефанко, Максим Дрозд, Сергей Паршин, Лариса Маршалова, Иннокентий Сичкарь, Игорь Денисов, Александр Жданович, Вячеслав Павлють, Олег Волчек, Валерий Зеленский (II), Юлия Кадушкевич, Кирилл Новицкий, Александр Тютин, Габриэла Мариани, Валерий Кащеев, Валерий Баринов, Виктор Бабак

Качество: SATRemux
Формат: MPEG
Видео кодек: MPEG2
Аудио кодек: MPEG1 Layer 2
Видео: MPEG2 Video 720x576 (4:3) 25.00fps 5 468 Kbps, 0.527 bit/pixel
Аудио: MPEG Audio 48000Hz stereo 192 Кбит/сек
Complete name : F:\TORENTRAZDACHI\Псевдоним Албанец-3 by CLIPMAN\Псевдоним Албанец-3.01_SATRemux_by_CLIPMAN.mpg
Format : MPEG-PS
File size : 1.91 GiB
Duration : 47mn 21s
Overall bit rate : 5 775 Kbps
Writing library : (c) 1997-2004 Womble Multimedia, Inc. / MPEG-VCR V3.14 (06/2004) / Jun 27 2004
Video
ID : 224 (0xE0)
Format : MPEG Video
Format version : Version 2
Format profile : Main@Main
Format settings, BVOP : Yes
Format settings, Matrix : Default
Duration : 47mn 21s
Bit rate mode : Variable
Bit rate : 5 468 Kbps
Nominal bit rate : 10 000 Kbps
Width : 720 pixels
Height : 576 pixels
Display aspect ratio : 4:3
Frame rate : 25.000 fps
Standard : PAL
Color space : YUV
Chroma subsampling : 4:2:0
Bit depth : 8 bits
Scan type : Interlaced
Scan order : Top Field First
Bits/(Pixel*Frame) : 0.527
Stream size : 1.81 GiB (95%)
Writing library : (c) 1997-2004 Womble Multimedia, Inc. / MPEG-VCR V3.14 (06/2004) / Jun 27 2004
Audio
ID : 192 (0xC0)
Format : MPEG Audio
Format version : Version 1
Format profile : Layer 2
Duration : 47mn 21s
Bit rate mode : Constant
Bit rate : 192 Kbps
Channel(s) : 2 channels
Sampling rate : 48.0 KHz
Video delay : -80ms
Stream size : 65.0 MiB (3%)
Внимание! Раздача ведётся путём добавления новых серий; при каждом добавлении создётся новый торрент. Чтобы начать докачку новой серии, пользователям необходимо сделать следующее:
(1) остановить скачивание,
(2) удалить старый торрент у себя из клиента (старые серии удалять не надо),
(3) скачать новый торрент и запустить его у себя в клиенте вместо старого, при этом указать клиенту путь в старую папку куда и должно происходить скачивание новых серий.
Ваш клиент при этом должен произвести хеширование (проверку) старой папки (если не производит сам - помогите ему сделать это), и будет докачивать только те серии которых у вас ещё нет. Старые серии при этом не удаляются, а продолжают раздаваться!
Eсли вы уже удалили старые серии, то предотвратить повторную закачку старых серий можно, отжав галочку в соответсвующих местах при запуске нового торрента. По возможности, желательно не удалять старые серии как можно дольше чтобы релизёр не столько продолжал раздавать старые серии, а смог сконцентрироваться на новых.



Скачать Псевдоним "Албанец" – 3 через торрент http://i12.fastpic.ru/big/2010/1122/5f/e8fdbb4799ddfcabfa19669a2e22775f.png Скачать, смотреть онлайн Псевдоним "Албанец" – 3 бесплантно в хорошем качестве Описание: Продолжение знакового сериала, в котором в память о погибшем друге одноименный псевдоним возьмет Александр Воронков — однокурсник ... 10 10 2
Info! Золотая раздача, скачанное не засчитывается.
Торрент: Зарегистрирован [2010-12-08 19:48] · скачан: 69 раз
Статус: √ проверено
Размер: 29.2 GB
Как cкачать? Как скачать Псевдоним "Албанец" – 3 через торрент | UTorrent

28-11-2019 20:33  

Отключить вcю реклaмy на сайте

    Дорогой пользователь! Огромная просьба, поблагодарите релизера, оцените раздачу и оставьте свои комментарий, если Вы скачали Псевдоним "Албанец" – 3 через торрент бесплатно!!
    Комментировать посты могут только пользователи прошедшие не сложную регистрацию
    Показать сообщения:    


    Псевдоним "Албанец" – 3 через торрент
    Скачать бесплатно Псевдоним "Албанец" – 3
    Псевдоним "Албанец" – 3 скачать торрент
    Псевдоним "Албанец" – 3 смотреть онлайн
    Cкачать фильм Псевдоним "Албанец" – 3 бесплатно
    Псевдоним "Албанец" – 3 скачать торрент в хорошем качестве
    Псевдоним "Албанец" – 3 смотреть онлайн бесплатно в хорошем качестве
    Вы не можете начинать темы
    Вы не можете отвечать на сообщения
    Вы не можете редактировать свои сообщения
    Вы не можете удалять свои сообщения
    Вы не можете голосовать в опросах
    Вы не можете прикреплять файлы к сообщениям
    Вы можете скачивать файлы