Лицензия

MVO

1

1 сезон

Лицензия

Лицензия

13

MVO

1 сезон

Deluxe Edition

pack

Рекомендуем

30

Repack

ВАЖНО

ВАЖНО

Ghostwire

RePack

jed

RePack

fifa19

RePack

RDR2

RePack

NEED FOR SPEED™ PAYBACK

RePack

Кинопоиск HD

 Острые козырьки 6 сезон

6 сезон

FAR CRY 6

RePack

Лицензия

MVO

1

1 сезон

1 сезон

Лицензия

  

Охотник за караванами / Серии: 1 - 4 из 4 ( Сергей Чекалов) [2010, Боевик,военный, DVB]

Охотник за караванами через торрент kino.freetor.icu

Размер: 5.68 GB | Добавлен: 11 лет назад | Торрент скачан:120 раз
Смотреть онлайн Охотник за караванами | Скачать   

23-12-2010 12:21 Охотник за караванами Скачать торрент  

Охотники за караванами

Год выпуска: 2010
Производство: 4К по заказу Star Media
Страна:
Жанр: Боевик,военный
Продолжительность: ~ 00:45:00 серия
Субтитры: Отсутствуют
Перевод: Не требуется

Режиссер: Сергей Чекалов
Продюссер: Влад Ряшин, Алексей Терентьев
Сценарий: Вадим Бочанов

Премьера в мире: 19 декабря 2010

Мировой рейтинг IMDB


В ролях: Алексей Серебряков, Андрей Саминин, Алексей Лонгин, Всеволод Хованский-Померанцев, Карина Андоленко, Евгения Лютая, Владимир Смирнов, Михаил Тарабукин, Иван Шибанов, Никита Емшанов

Описание: Афганистан 1987 год. Появившееся у моджахедов переносные зенитные комплексы «Стингер» грозят положить конец безраздельному государству в воздухе советской авиации.
Командир разведбата майор Оковалков получает задание добыть образец этого нового оружия. Для этого ему необходимо захватить небольшой караван, который согласно полученным разведданным будет перевозить 1 или 2 «Стингера» и не будет иметь значительной охраны. Однако караван оказывается не просто большим. Он огромный с хорошо вооруженной охраной и прикрытием в «зеленке».
Поняв, что операция провалена, Оковалко принимает решение переждать прохождение колонны и вернуться в часть, но его планы нарушает автоматная очередь, случайно выпущенная молодым неопытным солдатом Мануйловым. Завязывается неравный бой, разведчики прорываются сквозь караван. В этом прорыве гибнет практически весь отряд. Уцелело только семеро воинов. Рация потеряна. У Оковалкова только один способ довести маленький отряд на базу — пеший марш длинной в 45 километров, которые становятся тяжелыми испытанием.

Качество: DVB
Формат: MPEG
Видео кодек: MPEG2
Аудио кодек: MPEG1 Layer 2
Видео: MPEG2 Video 720x576 (4:3) 25.00fps 4 190 Kbps, 0.404 bit/pixel
Аудио: MPEG Audio 48000Hz stereo 128 Кбит/сек
Complete name : F:\TORENTRAZDACHI\Охотник за караванами by CLIPMAN\Охотник за караванами.01_DVB by CLIPMAN.mpg
Format : MPEG-PS
File size : 1.48 GiB
Duration : 48mn 24s
Overall bit rate : 4 369 Kbps
Writing library : (c) 1997-2004 Womble Multimedia, Inc. / MPEG-VCR V3.14 (06/2004) / Jun 27 2004
Video
ID : 224 (0xE0)
Format : MPEG Video
Format version : Version 2
Format profile : Main@Main
Format settings, BVOP : Yes
Format settings, Matrix : Default
Format settings, GOP : M=3, N=24
Duration : 48mn 24s
Bit rate mode : Constant
Bit rate : 4 190 Kbps
Width : 720 pixels
Height : 576 pixels
Display aspect ratio : 4:3
Frame rate : 25.000 fps
Standard : PAL
Color space : YUV
Chroma subsampling : 4:2:0
Bit depth : 8 bits
Scan type : Interlaced
Scan order : Top Field First
Bits/(Pixel*Frame) : 0.404
Stream size : 1.40 GiB (95%)
Writing library : (c) 1997-2004 Womble Multimedia, Inc. / MPEG-VCR V3.14 (06/2004) / Jun 27 2004
Audio
ID : 192 (0xC0)
Format : MPEG Audio
Format version : Version 1
Format profile : Layer 2
Duration : 48mn 24s
Bit rate mode : Constant
Bit rate : 128 Kbps
Channel(s) : 2 channels
Sampling rate : 48.0 KHz
Video delay : -40ms
Stream size : 44.3 MiB (3%)







Скачать Охотник за караванами через торрент http://i4.fastpic.ru/big/2010/1220/c6/a8e9a9ad2098b79a8dea417bd726dbc6.jpg Скачать, смотреть онлайн Охотник за караванами бесплантно в хорошем качестве Описание: Афганистан 1987 год. Появившееся у моджахедов переносные зенитные комплексы «Стингер» грозят положить конец безраздельному ... 4.5 10 10
Info! Золотая раздача, скачанное не засчитывается.
Торрент: Зарегистрирован [2010-12-23 12:21] · скачан: 120 раз
Статус: % проверяется
Размер: 5.68 GB
Как cкачать? Как скачать Охотник за караванами через торрент | UTorrent

% Раздел Тема Автор DL S | L
Наши сериалы [ 2.79 GB ] Охотники за караванами | | DVDRip vasilich619 Скачать
1 | 0
Наши фильмы 2010-2011 [ 7.61 GB ] Охотники за караванами / Сезон: 1 Серии: 4 из 4 | | Охотники за караванами / Сезон: 1 Серии: 4 из 4 (Сергей Чекалов voovaz Скачать
1 | 0
Фильмы 2010 [ 2.68 GB ] Охотники за караванами | | DVDRip coc900 Скачать
1 | 0
Фильмы 2010 [ 5.41 GB ] Охотники за караванами | | HDRip[720 coc900 Скачать
1 | 0
Наши фильмы 2010-2011 [ 2.04 GB ] Охотник за караванами | | SATRip шурка Скачать
1 | 0



Последний раз редактировалось: SLAYERMADES (2010-12-23 17:26), всего редактировалось 1 раз

28-11-2019 20:33  

Отключить вcю реклaмy на сайте

23-12-2010 12:26 Охотник за караванами Скачать торрент  

Качество: DVB поправте



23-12-2010 12:30 Охотник за караванами Скачать торрент  

Pirat_bit писал(а):

Качество: DVB поправте

Че поправлять то я не понял,вот что такое DVB



23-12-2010 12:35 Охотник за караванами Скачать торрент  

фильм супер



28-12-2010 20:10 Охотник за караванами Скачать торрент  

филм абалдет



    Дорогой пользователь! Огромная просьба, поблагодарите релизера, оцените раздачу и оставьте свои комментарий, если Вы скачали Охотник за караванами через торрент бесплатно!!
    Комментировать посты могут только пользователи прошедшие не сложную регистрацию
    Показать сообщения:    


    Охотник за караванами через торрент
    Скачать бесплатно Охотник за караванами
    Охотник за караванами скачать торрент
    Охотник за караванами смотреть онлайн
    Cкачать фильм Охотник за караванами бесплатно
    Охотник за караванами скачать торрент в хорошем качестве
    Охотник за караванами смотреть онлайн бесплатно в хорошем качестве
    Вы не можете начинать темы
    Вы не можете отвечать на сообщения
    Вы не можете редактировать свои сообщения
    Вы не можете удалять свои сообщения
    Вы не можете голосовать в опросах
    Вы не можете прикреплять файлы к сообщениям
    Вы можете скачивать файлы