Anonymous, доброе утро, присоединяйтесь к нам в Telegram!, здесь всегда актуальный адрес сайта, оперативная поддержка и многое другое!

>

5.5

iTunes

7.4

iTunes

7.9

iTunes

1

7.7

1 сезон

6.8

iTunes

7.3

1 сезон

13

6.7

1 сезон

8.3

RePack

30

ULTIMATE

pack

9.9

Лицензия

ВАЖНО

ИГРА 18+

pack

7.3

RePack

MK11

7.7

RePack

jed

7.8

RePack

fifa19

8.5

RePack

RDR2

RePack

NEED FOR SPEED™ PAYBACK

4 сезон

9 сезон

Бесстыжие 9 сезон

Все сериалы

все сериалы на PB.wtf

RePack

FAR CRY 5

Anonymous, доброе утро, мы катастрофически не успеваем собрать деньги на оплату серверов, помогите нам пожалуйста 5,10,15р., для нас важна любая помощь . В качестве благодарности мы отключим Вам всю рекламу на сайте (укажите свой ник в строку Ваше имя)!

×
  
Magnet ссылка

Стрела / Arrow / Сезон: 7 / Серии: 1-17 из 23 (Адам Дэвидсон) [2018, фантастика, боевик, драма, криминал, WEBRip 720p] MVO [Good People] kino.freetor.icu

Стрела через торрент kino.freetor.icu

Размер: 23.73 GB | Добавлен: 2 года 4 мес. назад | Торрент скачан:0 раз
Смотреть онлайн Стрела | Скачать    Ребята, помогите собрать деньги на оплату серверов!!!

02-01-2019 07:25 Стрела Скачать торрент  

Стрела / Arrow Оригинальное название: Arrow
Русское название: Стрела
Год выпуска: 2018
Страна: США
Жанр: фантастика, боевик, драма, криминал
Продолжительность: ~ 00:46:00 мин.
Перевод: Профессиональный (многоголосый закадровый) | Студия Good People
Субтитры: английские

Режиссёр: Адам Дэвидсон

rating Сэмпл

В ролях:

Наталия Тена, Джереми Пивен, Ричард Т. Джонс, Алекс Дункан, Чад Рук, Ион Оверман, Блейк Ли, Рамсес Хименес и др.

Описание:

После кораблекрушения плейбой миллиардер Оливер Куин пропадает и считается погибшим в течение пяти лет, после чего его обнаруживают живым на затерянном острове в Тихом океане. Когда он возвращается домой в Старлинг-Сити, его преданная мать Мойра, столь любимая сестра Теа и лучший друг Томми приветствуют его дома, но они видят, что Оливер изменился после испытаний на острове. Хотя Оливер скрывает правду о человеке, которым он стал…

Качество: WEBRip 720p
Формат: MKV
Видео кодек: AVC
Аудио кодек: AC3, E-AC3

Видео: H264, 1280x720 (16:9), 23.976 fps, ~3404kbps, 0.155 bit/pixel
Аудио 1: Dolby AC3 48000Hz 5.1 640 Kbps Русский
Аудио 2: Dolby E-AC3 48000Hz 5.1 640 Kbps Оригинал


Реклама: Присутствует звуковая (два раза в начале и конце по 12 сек.)
General
Unique ID                   : 223865030755044276523053601940101634327 (0xA86AD62CF0A7E778A9A082AE98D39917)
Complete name               : Arrow.S07E01.Inmate.4587.720p.AMZN.WEB-DL.DDP5.1.H.264-GoodPeople.mkv
Format                      : Matroska
Format version              : Version 2
File size                   : 1.29 GiB
Duration                    : 42mn 23s
Overall bit rate mode       : Variable
Overall bit rate            : 4 350 Kbps
Encoded date                : UTC 2017-10-15 19:13:57
Writing application         : mkvmerge v5.4.0 ('Piper') built on Mar 10 2012 13:34:39
Writing library             : libebml v1.2.3 + libmatroska v1.3.0
DURATION                    : 00:41:50.374000000
NUMBER_OF_FRAMES            : 825
NUMBER_OF_BYTES             : 25215
_STATISTICS_WRITING_APP     : mkvmerge v15.0.0 ('Duel with the Devil') 64-bit
_STATISTICS_WRITING_DATE_UT : 2017-10-13 10:34:55
_STATISTICS_TAGS            : BPS DURATION NUMBER_OF_FRAMES NUMBER_OF_BYTES

Video
ID                          : 1
Format                      : AVC
Format/Info                 : Advanced Video Codec
Format profile              : High@L3.1
Format settings, CABAC      : Yes
Format settings, ReFrames   : 5 frames
Codec ID                    : V_MPEG4/ISO/AVC
Duration                    : 42mn 23s
Bit rate mode               : Variable
Bit rate                    : 3 431 Kbps
Maximum bit rate            : 4 500 Kbps
Width                       : 1 280 pixels
Height                      : 720 pixels
Display aspect ratio        : 16:9
Frame rate mode             : Constant
Frame rate                  : 23.976 fps
Color space                 : YUV
Chroma subsampling          : 4:2:0
Bit depth                   : 8 bits
Scan type                   : Progressive
Bits/(Pixel*Frame)          : 0.155
Stream size                 : 1.02 GiB (79%)
Default                     : Yes
Forced                      : No
Color range                 : Limited
Color primaries             : BT.709
Transfer characteristics    : BT.709
Matrix coefficients         : BT.709

Audio #1
ID                          : 2
Format                      : AC-3
Format/Info                 : Audio Coding 3
Mode extension              : CM (complete main)
Format settings, Endianness : Big
Codec ID                    : A_AC3
Duration                    : 42mn 23s
Bit rate mode               : Constant
Bit rate                    : 192 Kbps
Channel(s)                  : 2 channels
Channel positions           : Front: L R
Sampling rate               : 48.0 KHz
Compression mode            : Lossy
Stream size                 : 58.2 MiB (4%)
Language                    : Russian
Default                     : Yes
Forced                      : No

Audio #2
ID                          : 3
Format                      : E-AC-3
Format/Info                 : Audio Coding 3
Format settings, Endianness : Big
Codec ID                    : A_EAC3
Duration                    : 42mn 23s
Bit rate mode               : Constant
Bit rate                    : 640 Kbps
Channel(s)                  : 6 channels
Channel positions           : Front: L C R, Side: L R, LFE
Sampling rate               : 48.0 KHz
Compression mode            : Lossy
Stream size                 : 194 MiB (15%)
Language                    : English
Default                     : No
Forced                      : No

Text
ID                          : 4
Format                      : UTF-8
Codec ID                    : S_TEXT/UTF8
Codec ID/Info               : UTF-8 Plain Text
Language                    : English
Default                     : No
Forced                      : No
Внимание! Раздача ведётся путём добавления новых серий; при каждом добавлении создаётся новый торрент. Чтобы начать докачку новой серии, пользователям необходимо сделать следующее:
(1) остановить скачивание,
(2) удалить старый торрент-файл у себя из клиента (старые серии удалять не надо),
(3) скачать новый торрент-файл из раздачи и запустить его у себя в клиенте вместо старого, при этом указать клиенту путь в старую папку, куда и должно происходить скачивание новых серий.
kino.freetor.icu



Скачать Стрела через торрент https://i108.fastpic.ru/big/2019/0102/a5/8fa302a6b4dd81091d76f9891d7d24a5.png Скачать, смотреть онлайн Стрела бесплантно в хорошем качестве Описание: После кораблекрушения плейбой миллиардер Оливер Куин пропадает и считается погибшим в течение пяти лет, после чего его ... 10 10 5
Торрент: Зарегистрирован [2019-06-19 08:21] · скачан: 0 раз
Статус: √ проверено
Размер: 23.73 GB
Как cкачать? Как скачать Стрела через торрент | UTorrent



Последний раз редактировалось: bober100 (2019-06-19 08:21), всего редактировалось 1 раз

28-11-2019 20:33  

Отключить всю рекламу на сайте

10-04-2019 16:36 Стрела Скачать торрент  

почему во всех сезонах одинаковое описание?))kino.freetor.icu



    Дорогой пользователь! Огромная просьба, поблагодарите релизера, оцените раздачу и оставьте свои комментарий, если Вы скачали Стрела через торрент бесплатно!
    Комментировать посты могут только пользователи прошедшие не сложную регистрацию
    Показать сообщения:    

    Стрела через торрент
    Скачать бесплатно Стрела
    Стрела скачать торрент
    Стрела смотреть онлайн
    Cкачать фильм Стрела бесплатно
    Стрела скачать торрент в хорошем качестве
    Стрела смотреть онлайн бесплатно в хорошем качестве


    Вы не можете начинать темы
    Вы не можете отвечать на сообщения
    Вы не можете редактировать свои сообщения
    Вы не можете удалять свои сообщения
    Вы не можете голосовать в опросах
    Вы не можете прикреплять файлы к сообщениям
    Вы можете скачивать файлы