1 сезон

3 сезон

iTunes

1

iTunes

DUB Netflix

iTunes

13

1 сезон

RePack

30

Deluxe

pack

Легкие деньги

ВАЖНО

ИГРА 18+

pack

RePack

MK11

RePack

jed

RePack

fifa19

RePack

RDR2

RePack

NEED FOR SPEED™ PAYBACK

4 сезон

9 сезон

Бесстыжие 9 сезон

Все сериалы

все сериалы на PB.wtf

RePack

FAR CRY 5

Anonymous, добрый вечер, мы не успеваем до 1 числа собрать деньги на оплату серверов, помогите нам пожалуйста в это трудное время. В качестве благодарности мы отключим Вам всю рекламу на сайте (укажите свой ник в строку Ваше имя)!

×
  
Magnet ссылка

Содержанки / Сезон: 1 /Серии: 1-8 из 8 (Константин Богомолов) [2019 г., Триллер, Эротика, WEB-DLRip] kino.freetor.icu

Содержанки через торрент kino.freetor.icu

Раздают: 10 [ 418 KB/s ] Качают: 3 [ 0 KB/s ]
Размер: 4.69 GB | Добавлен: 2 года 2 мес. назад | Торрент скачан:971 раз
Скачать  

07-03-2019 16:53 Содержанки Скачать торрент  

Содержанки
Год выпуска: 2019
Страна: Россия
Жанр: Триллер, Эротика
Продолжительность: 8х~ 00:55:00
Субтитры: Отсутствуют

Режиссер: Константин Богомолов



В ролях: Ольга Сутулова, Дарья Мороз, Мария Фомина, Софья Заика, Сергей Бурунов, Владимир Мишуков, Александр Кузнецов, Марина Зудина, Александр Збруев, Семён Штейнберг и др.

Описание: Москва, наши дни. Город больших денег и страстей, великолепных женщин и состоятельных мужчин, светских раутов и опасных интриг. Здесь красивые девушки мечтают попасть в мир гламура, струящихся шелков и сверкающих драгоценностей, а главная светская сваха города ловко пристраивает их в надёжные руки. Приехавшая в столицу Даша, искусствовед из провинции, мечтает о новой, лучшей жизни, но загадочное и жестокое происшествие изменит всё.

Качество: WEB-DLRip
Формат: AVI
Видео кодек: XviD
Аудио кодек: AC3
Видео: XviD, 720x400 (16:9), ~ 1353 Kbps
Аудио#1: AC3, 2 ch, 192 Kbps
скриншот   скриншот   скриншот   скриншот  

General
Complete name : F:\СЕРИАЛЫ\СОДЕРЖАНКИ\Soderzhanki.S01.2019.WEB-DLRip.25Kuzmich\Soderzhanki.s01e01.WEB-DLRip.25Kuzmich.avi
Format : AVI
Format/Info : Audio Video Interleave
File size : 600 MiB
Duration : 54 min 0 s
Overall bit rate : 1 554 kb/s
Writing application : VirtualDubMod 1.5.10.3 | www.virtualdub-fr.org || (build 2550/release)
Writing library : VirtualDubMod build 2550/release

Video
ID : 0
Format : MPEG-4 Visual
Format profile : Advanced [email protected]
Format settings : BVOP1
Format settings, BVOP : 1
Format settings, QPel : No
Format settings, GMC : No warppoints
Format settings, Matrix : Default (MPEG)
Codec ID : XVID
Codec ID/Hint : XviD
Duration : 54 min 0 s
Bit rate : 1 353 kb/s
Width : 720 pixels
Height : 400 pixels
Display aspect ratio : 16:9
Frame rate : 23.976 (24000/1001) FPS
Color space : YUV
Chroma subsampling : 4:2:0
Bit depth : 8 bits
Scan type : Progressive
Compression mode : Lossy
Bits/(Pixel*Frame) : 0.196
Stream size : 523 MiB (87%)
Writing library : XviD 67

Audio
ID : 1
Format : AC-3
Format/Info : Audio Coding 3
Codec ID : 2000
Duration : 54 min 0 s
Bit rate mode : Constant
Bit rate : 192 kb/s
Channel(s) : 2 channels
Channel positions : Front: L R
Sampling rate : 48.0 kHz
Frame rate : 31.250 FPS (1536 SPF)
Bit depth : 16 bits
Compression mode : Lossy
Stream size : 74.2 MiB (12%)
Alignment : Split accross interleaves
Interleave, duration : 42 ms (1.00 video frame)
Interleave, preload duratio : 500 ms
Service kind : Complete Main

Внимание! Раздача ведётся путём добавления новых серий; при каждом добавлении создётся новый торрент. Чтобы начать докачку новой серии, пользователям необходимо сделать следующее:
  • Остановить скачивание,
  • Удалить старый торрент у себя из клиента (старые серии удалять не надо),
  • Скачать новый торрент и запустить его у себя в клиенте вместо старого, при этом указать клиенту путь в старую папку куда и должно происходить скачивание новых серий.
Ваш клиент при этом должен произвести хеширование (проверку) старой папки (если не производит сам - помогите ему сделать это), и будет докачивать только те серии которых у вас ещё нет. Старые серии при этом не удаляются, а продолжают раздаваться!

Eсли вы уже удалили старые серии, то предотвратить повторную закачку старых серий можно, отжав галочку в соответсвующих местах при запуске нового торрента. По возможности, желательно не удалять старые серии как можно дольше чтобы релизёр не столько продолжал раздавать старые серии, а смог сконцентрироваться на новых.
kino.freetor.icu



Скачать Содержанки через торрент https://pic1.kartinco.top/images/12/y97p4.jpg Скачать фильм Содержанки через торрент бесплантно в хорошем качестве Описание: Москва, наши дни. Город больших денег и страстей, великолепных женщин и состоятельных мужчин, светских раутов и опасных интриг. ... 9.8 10 28
Info! Золотая раздача, скачанное не засчитывается.
Торрент: Зарегистрирован [2019-04-17 22:54] · скачан: 971 раз
Статус: √ проверено
Размер: 4.69 GB
Как cкачать? Как скачать Содержанки через торрент | UTorrent

% Раздел Тема Автор DL S | L
Наши сериалы [ 1.17 GB ] Содержанки / Сезон: 3 /Серии: 1-2 из 8 [2021 Эротика WEBRip] GEKADOL Скачать
15 | 8
Наши сериалы [ 4.73 GB ] Содержанки / Сезон: 2 / Серии: 1-8 из 8 [2020 эротика WEBRip-AVC] bober100 Скачать
9 | 0
Наши сериалы [ 11.96 GB ] Содержанки / Сезон: 2 / Серии: 1-8 из 8 [2020 эротика WEBRip 720p] bober100 Скачать
8 | 1
Наши сериалы [ 16.9 GB ] Содержанки / Сезон: 2 / Серии: 1-8 из 8 [2020 эротика WEBRip 1080p] bober100 Скачать
8 | 0
Наши сериалы [ 4.69 GB ] Содержанки / Сезон: 2 /Серии: 1-8 из 8 [2020 Эротика WEB-DLRip] GEKADOL Скачать
7 | 0
Наши сериалы [ 4.95 GB ] Содержанки / Сезон: 1 / Серии: 1-8 из 8 [2019 эротика WEBRip-AVC] bober100 Скачать
1 | 0
Наши сериалы [ 8.32 GB ] Содержанки / Сезон: 1 / Серии: 1-8 из 8 [2019 эротика WEB-DL 720p] bober100 Скачать
5 | 1


Последний раз редактировалось: oleg8 (2019-03-21 12:52), всего редактировалось 5 раз(а)

28-11-2019 20:33  

Отключить всю рекламу на сайте

16-03-2019 16:39 Содержанки Скачать торрент  

опять Бурунов, он скоро как Ходченкова, всех хатрахает своим присутствиемkino.freetor.icu



    Дорогой пользователь! Огромная просьба, поблагодарите релизера, оцените раздачу и оставьте свои комментарий, если Вы скачали Содержанки через торрент бесплатно! Внесите свою лепту в развитие PiratBit!
    Комментировать посты могут только пользователи прошедшие не сложную регистрацию
    Показать сообщения:    

    Содержанки через торрент
    Скачать бесплатно Содержанки
    Содержанки скачать торрент
    Содержанки смотреть онлайн
    Cкачать фильм Содержанки бесплатно
    Содержанки скачать торрент в хорошем качестве
    Содержанки смотреть онлайн бесплатно в хорошем качестве


    Вы не можете начинать темы
    Вы не можете отвечать на сообщения
    Вы не можете редактировать свои сообщения
    Вы не можете удалять свои сообщения
    Вы не можете голосовать в опросах
    Вы не можете прикреплять файлы к сообщениям
    Вы можете скачивать файлы