Anonymous, добрый день, присоединяйтесь к нам в Telegram!, здесь всегда актуальный адрес сайта, оперативная поддержка и многое другое!

>

5.6

iTunes

7.4

iTunes

7.9

MVO

1

7.7

1 сезон

6.8

iTunes

7.3

1 сезон

13

6.7

1 сезон

8.3

RePack

30

ULTIMATE

pack

9.9

Лицензия

ВАЖНО

ИГРА 18+

pack

7.3

RePack

MK11

7.7

RePack

jed

7.8

RePack

fifa19

8.5

RePack

RDR2

RePack

NEED FOR SPEED™ PAYBACK

4 сезон

9 сезон

Бесстыжие 9 сезон

Все сериалы

все сериалы на PB.wtf

RePack

FAR CRY 5

Anonymous, добрый день, мы катастрофически не успеваем собрать деньги на оплату серверов, помогите нам пожалуйста 5,10,15р., для нас важна любая помощь . В качестве благодарности мы отключим Вам всю рекламу на сайте (укажите свой ник в строку Ваше имя)!

×
  
Magnet ссылка

Стрела / Arrow / Сезон: 7 / Серии: 1-22 из 22 (Джон Беринг) [2018, фантастика, фэнтези, боевик, драма, криминал, детектив, приключения, WEBRip 720p] MVO [TVShows] kino.freetor.icu

Стрела через торрент kino.freetor.icu

Размер: 26.64 GB | Добавлен: 2 года 3 мес. назад | Торрент скачан:20 раз
Смотреть онлайн Стрела | Скачать    Ребята, помогите собрать деньги на оплату серверов!!!

22-07-2019 06:35 Стрела Скачать торрент  

Стрела / Arrow
«Судьба оставляет свой отпечаток»
Производство: США
Год выпуска: 2018
Жанр: фантастика, фэнтези, боевик, драма, криминал, детектив, приключения
Продолжительность: ~ 00:42:00 серия
Премьера (мир): 10 октября 2012
Премьера (РФ): 10 января 2013
Релиз на DVD: 9 октября 2014, «CP Дистрибуция»
Перевод: Профессиональный (многоголосый закадровый) | TVShows
Субтитры: русские, английские (SDH)

Режиссёр: Джон Беринг, Джеймс Бэмфорд, Майкл Шульц

В ролях: Стивен Амелл, Кэти Кэссиди, Дэвид Рэмси, Уилла Холланд, Эмели Бетт Рикардс, Пол Блекторн, Сюзанна Томпсон, Ману Беннетт, Колтон Хэйнс, Кейти Лотц, Джон Барроумен

Описание: Избалованный плейбой Оливер Квин, считавшийся погибшим в кораблекрушении вместе с отцом и девушкой, на самом деле пять лет выживал на затерянном острове в Тихом океане, где пересмотрел свой взгляд на жизнь. За это время мир сильно изменился: его мать вышла замуж за нового владельца империи Квинов, младшая сестра подсела на наркотики, а бывшая девушка стала встречаться с лучшим другом Томми Мерлином. Вернувшись к цивилизации, Оливер решил избавить родной город от преступности, создав неуловимого лучника Стрелу.



Качество: WEBRip 720p
Формат: MKV

Видео: AVC, 1280 x 720 (1.778), 23.976 fps, ~2458 kbps
Аудио Rus: AC-3, 48 kHz, 6 ch, 384 kbps |TVShows|
Аудио Eng: AC-3, 48 kHz, 6 ch, 384 kbps |Original|
Общее
Уникальный идентификатор : 90047177522490544930046485759860994857 (0x43BE749F915CF434FB7600200AE8F329)
Полное имя : E:\_Сериалы\_Сериалы\Стрела\Arrow.s07.720p.WEBRip.TVShows\Arrow.s07e01.720p.WEBRip.TVShows.mkv
Формат : Matroska
Версия формата : Version 4
Размер файла : 976 Мбайт
Продолжительность : 42 м. 17 с.
Общий поток : 3228 Кбит/сек
Дата кодирования : UTC 2019-06-25 08:05:35
Программа кодирования : mkvmerge v35.0.0 ('All The Love In The World') 64-bit
Библиотека кодирования : libebml v1.3.9 + libmatroska v1.5.2

Видео
Идентификатор : 1
Формат : AVC
Формат/Информация : Advanced Video Codec
Профиль формата : High@L3.1
Настройки формата : CABAC / 5 Ref Frames
Параметр CABAC формата : Да
Параметр RefFrames формата : 5 кадров
Идентификатор кодека : V_MPEG4/ISO/AVC
Продолжительность : 42 м. 17 с.
Битрейт : 2458 Кбит/сек
Ширина : 1280 пикселей
Высота : 720 пикселей
Соотношение сторон : 16:9
Режим частоты кадров : Постоянный
Частота кадров : 23,976 (24000/1001) кадра/сек
Цветовое пространство : YUV
Субдискретизация насыщенности : 4:2:0
Битовая глубина : 8 бит
Тип развёртки : Прогрессивная
Бит/(Пиксели*Кадры) : 0.111
Размер потока : 743 Мбайт (76%)
Default : Да
Forced : Нет
Цветовой диапазон : Limited
Основные цвета : BT.709
Характеристики трансфера : BT.709
Коэффициенты матрицы : BT.709

Аудио #1
Идентификатор : 2
Формат : AC-3
Формат/Информация : Audio Coding 3
Коммерческое название : Dolby Digital
Идентификатор кодека : A_AC3
Продолжительность : 42 м. 17 с.
Вид битрейта : Постоянный
Битрейт : 384 Кбит/сек
Каналы : 6 каналов
ChannelLayout : L R C LFE Ls Rs
Частота : 48,0 КГц
Частота кадров : 31,250 кадров/сек (1536 SPF)
Битовая глубина : 16 бит
Метод сжатия : С потерями
Размер потока : 116 Мбайт (12%)
Язык : Russian
ServiceKind/String : Complete Main
Default : Да
Forced : Нет

Аудио #2
Идентификатор : 3
Формат : AC-3
Формат/Информация : Audio Coding 3
Коммерческое название : Dolby Digital
Идентификатор кодека : A_AC3
Продолжительность : 42 м. 17 с.
Вид битрейта : Постоянный
Битрейт : 384 Кбит/сек
Каналы : 6 каналов
ChannelLayout : L R C LFE Ls Rs
Частота : 48,0 КГц
Частота кадров : 31,250 кадров/сек (1536 SPF)
Битовая глубина : 16 бит
Метод сжатия : С потерями
Размер потока : 116 Мбайт (12%)
Язык : English
ServiceKind/String : Complete Main
Default : Нет
Forced : Нет

Текст #1
Идентификатор : 4
Формат : UTF-8
Идентификатор кодека : S_TEXT/UTF8
Идентификатор кодека/Информация : UTF-8 Plain Text
Продолжительность : 41 м. 39 с.
Битрейт : 117 бит/сек
ElementCount : 702
Размер потока : 35,9 Кбайт (0%)
Язык : Russian
Default : Нет
Forced : Нет

Текст #2
Идентификатор : 5
Формат : UTF-8
Идентификатор кодека : S_TEXT/UTF8
Идентификатор кодека/Информация : UTF-8 Plain Text
Продолжительность : 42 м. 8 с.
Битрейт : 72 бит/сек
ElementCount : 770
Размер потока : 22,5 Кбайт (0%)
Заголовок : SDH
Язык : English
Default : Нет
Forced : Нет
Раздача ведётся путём добавления новых серий; при каждом добавлении создаётся новый торрент.
Чтобы начать докачку новой серии, пользователям необходимо сделать следующее:
1. остановить скачивание,
2. удалить старый торрент у себя из клиента (старые серии удалять не надо),
3. скачать новый торрент и запустить его у себя в клиенте вместо старого, при этом указать клиенту путь в старую папку, куда и должно происходить скачивание новых серий.

Ваш клиент при этом должен произвести хеширование (проверку) старой папки (если не производит сам - помогите ему сделать это), и будет докачивать только те серии которых у вас ещё нет. Старые серии при этом не удаляются, а продолжают раздаваться!

Eсли вы уже удалили старые серии, то предотвратить повторную закачку старых серий можно, отжав галочку в соответствующих местах при запуске нового торрента. По возможности, желательно не удалять старые серии как можно дольше, чтобы релизёр не столько продолжал раздавать старые серии, а смог сконцентрироваться на новых.

Совет для тех, кто не хочет ждать перехеширования:
Создайте ещё одну папку рядом с папкой сериала (рядом, а не в ней!!!). Каждую новую серию после удачной загрузки копируйте в новую папку так чтобы ваша основная папка всегда была пуста. Когда ваш новый торрент предложит вам закачать все файлы, выберете только последнюю. Для сидирования же укажите адрес новой папки.

Как закачать отдельный файл из торрента или докачать ранее пропущенные файлы торрента!
1. Открыть торрент
2. Снять галки с тех файлов торрента, которые мы не хотим закачивать. Оставляем только на нужных нам файлах (файле).
3. Нажать О.К.

В клиенте utorrent

Инструкция

1) Открыть торрент


2) Снять галки с тех файлов торрента, которые мы не хотим закачивать:

* либо вручную, снимая с каждого файла галку( скрин №1)
* либо, нажав кнопку "Снять метки (Select None)", сняв сразу со всех файлов(скрин №2)
№1

№2

Оставляем только на нужных нам файлах (файле).

3)Нажать О.К
Приятного просмотра!!!kino.freetor.icu



Скачать Стрела через торрент http://i79.fastpic.ru/big/2018/1016/45/80d3c4feed8a9c2b445b0477799c7845.png Скачать, смотреть онлайн Стрела бесплантно в хорошем качестве Описание: Избалованный плейбой Оливер Квин, считавшийся погибшим в кораблекрушении вместе с отцом и девушкой, на самом деле пять лет ... 8 10 3
Торрент: Зарегистрирован [2019-07-22 06:35] · скачан: 20 раз
Статус: √ проверено
Размер: 26.64 GB
Как cкачать? Как скачать Стрела через торрент | UTorrent

% Раздел Тема Автор DL S | L
Стрела [ 66.89 GB ] Стрела / Arrow / Сезон: 7 / Серии: 1-22 из 22 [2018 WEB-DL 1080p] MVO [TVShows] bober100 Скачать
1 | 0
Стрела [ 11.04 GB ] Стрела / Arrow / Сезон: 7 / Серии: 1-22 из 22 [2018 WEB-DLRip] MVO [LostFilm] bober100 Скачать
1 | 0

28-11-2019 20:33  

Отключить всю рекламу на сайте

    Дорогой пользователь! Огромная просьба, поблагодарите релизера, оцените раздачу и оставьте свои комментарий, если Вы скачали Стрела через торрент бесплатно!
    Комментировать посты могут только пользователи прошедшие не сложную регистрацию
    Показать сообщения:    

    Стрела через торрент
    Скачать бесплатно Стрела
    Стрела скачать торрент
    Стрела смотреть онлайн
    Cкачать фильм Стрела бесплатно
    Стрела скачать торрент в хорошем качестве
    Стрела смотреть онлайн бесплатно в хорошем качестве


    Вы не можете начинать темы
    Вы не можете отвечать на сообщения
    Вы не можете редактировать свои сообщения
    Вы не можете удалять свои сообщения
    Вы не можете голосовать в опросах
    Вы не можете прикреплять файлы к сообщениям
    Вы можете скачивать файлы