Anonymous, доброе утро, присоединяйтесь к нам в Telegram!, здесь всегда актуальный адрес сайта, оперативная поддержка и многое другое!

>

5.5

iTunes

7.4

iTunes

7.9

iTunes

1

7.7

1 сезон

6.8

iTunes

7.3

1 сезон

13

6.7

1 сезон

8.3

RePack

30

ULTIMATE

pack

9.9

Лицензия

ВАЖНО

ИГРА 18+

pack

7.3

RePack

MK11

7.7

RePack

jed

7.8

RePack

fifa19

8.5

RePack

RDR2

RePack

NEED FOR SPEED™ PAYBACK

4 сезон

9 сезон

Бесстыжие 9 сезон

Все сериалы

все сериалы на PB.wtf

RePack

FAR CRY 5

Anonymous, доброе утро, мы катастрофически не успеваем собрать деньги на оплату серверов, помогите нам пожалуйста 5,10,15р., для нас важна любая помощь . В качестве благодарности мы отключим Вам всю рекламу на сайте (укажите свой ник в строку Ваше имя)!

×
  
Magnet ссылка

Стрела / Arrow / Сезон: 8 / Серии: 1-10 из 10 (Джон Беринг, Гай Норман Би, Глен Винтер) [2019, фантастика, боевик, драма, криминал, WEB-DL 1080p] MVO [Jaskier] kino.freetor.icu

Стрела через торрент kino.freetor.icu

Размер: 29.08 GB | Добавлен: 1 год 8 мес. назад | Торрент скачан:4 раза
Смотреть онлайн Стрела | Скачать    Ребята, помогите собрать деньги на оплату серверов!!!

18-10-2019 06:40 Стрела Скачать торрент  

✧ Стрела | Arrow ✧
Год выпуска: 2019
Страна: США
Жанр: фантастика, боевик, драма, криминал
Продолжительность: ~ 00:43:00
Перевод: Профессиональный (многоголосый закадровый) | Jaskier
Субтитры: английские

Режиссёр: Джон Беринг, Гай Норман Би, Глен Винтер

В ролях: Стивен Амелл, Кэти Кэссиди, Колин Доннелл, Дэвид Рэмси, Уилла Холланд, Сюзанна Томпсон, Пол Блекторн, Эмили Бетт Рикардс, Ману Беннетт, Колтон Хэйнс и другие.

Описание: После кораблекрушения плейбой миллиардер Оливер Куин пропадает и считается погибшим в течение пяти лет, после чего его обнаруживают живым на затерянном острове в Тихом океане. Когда он возвращается домой в Старлинг-Сити, его преданная мать Мойра, столь любимая сестра Теа и лучший друг Томми приветствуют его дома, но они видят, что Оливер изменился после испытаний на острове. Хотя Оливер скрывает правду о человеке, которым он стал…

rating

Качество: WEB-DL 1080p
Формат: MKV

Видео: 1920x1080 (16:9) | X264 | ~9200 kbps | 23.976 fps
Аудио #1: AC3, 48,0 КГц, 6 ch, 384 kbps - Rus
Аудио #2: AC3, 48,0 КГц, 6 ch, 384 kbps - Eng


Реклама: Присутствует звуковая (два раза в начале и конце по 10 сек.)
Переведено и озвучено: студией Jaskier
Общее
Полное имя                               : G:\Загрузки\Arrow.S08E01.1080p
Формат                                   : Matroska
Версия формата                           : Version 2
Размер файла                             : 3,01 Гбайт
Продолжительность                        : 42 м. 25 с.
Общий поток                              : 10,1 Мбит/сек
Дата кодирования                         : UTC 2019-10-17 20:34:32
Программа кодирования                    : mkvmerge v7.8.0 ('River Man') 32bit built on Apr  3 2015 12:11:22
Библиотека кодирования                   : libebml v1.3.1 + libmatroska v1.4.2

Видео
Идентификатор                            : 1
Формат                                   : AVC
Формат/Информация                        : Advanced Video Codec
Профиль формата                          : High@L4
Настройки формата                        : CABAC / 4 Ref Frames
Параметр CABAC формата                   : Да
Параметр RefFrames формата               : 4 кадра
Идентификатор кодека                     : V_MPEG4/ISO/AVC
Продолжительность                        : 42 м. 25 с.
Вид битрейта                             : Постоянный
Битрейт                                  : 9175 Кбит/сек
Номинальный битрейт                      : 10000 Кбит/сек
Ширина                                   : 1920 пикселей
Высота                                   : 1080 пикселей
Соотношение сторон                       : 16:9
Режим частоты кадров                     : Постоянный
Частота кадров                           : 23,976 (24000/1001) кадра/сек
Цветовое пространство                    : YUV
Субдискретизация насыщенности            : 4:2:0
Битовая глубина                          : 8 бит
Тип развёртки                            : Прогрессивная
Бит/(Пиксели*Кадры)                      : 0.185
Размер потока                            : 2,72 Гбайт (90%)
Язык                                     : English
Default                                  : Да
Forced                                   : Нет
Цветовой диапазон                        : Limited
Основные цвета                           : BT.709
Характеристики трансфера                 : BT.709
Коэффициенты матрицы                     : BT.709

Аудио #1
Идентификатор                            : 2
Формат                                   : AC-3
Формат/Информация                        : Audio Coding 3
Коммерческое название                    : Dolby Digital
Идентификатор кодека                     : A_AC3
Продолжительность                        : 42 м. 25 с.
Вид битрейта                             : Постоянный
Битрейт                                  : 384 Кбит/сек
Каналы                                   : 6 каналов
Channel layout                           : L R C LFE Ls Rs
Частота                                  : 48,0 КГц
Частота кадров                           : 31,250 кадров/сек (1536 SPF)
Битовая глубина                          : 16 бит
Метод сжатия                             : С потерями
Размер потока                            : 117 Мбайт (4%)
Заголовок                                : Jaskier
Язык                                     : Russian
ServiceKind/String                       : Complete Main
Default                                  : Да
Forced                                   : Нет

Аудио #2
Идентификатор                            : 3
Формат                                   : AC-3
Формат/Информация                        : Audio Coding 3
Коммерческое название                    : Dolby Digital
Идентификатор кодека                     : A_AC3
Продолжительность                        : 42 м. 25 с.
Вид битрейта                             : Постоянный
Битрейт                                  : 384 Кбит/сек
Каналы                                   : 6 каналов
Channel layout                           : L R C LFE Ls Rs
Частота                                  : 48,0 КГц
Частота кадров                           : 31,250 кадров/сек (1536 SPF)
Битовая глубина                          : 16 бит
Метод сжатия                             : С потерями
Размер потока                            : 117 Мбайт (4%)
Язык                                     : English
ServiceKind/String                       : Complete Main
Default                                  : Нет
Forced                                   : Нет

Текст
Идентификатор                            : 4
Формат                                   : UTF-8
Идентификатор кодека                     : S_TEXT/UTF8
Идентификатор кодека/Информация          : UTF-8 Plain Text
Язык                                     : English
Default                                  : Нет
Forced                                   : Нет
скриншот  скриншот  скриншот  
Когда раздача ведётся путём добавления новых серий, при каждом добавлении создётся новый торрент. Чтобы начать докачку новой серии, пользователям необходимо сделать следующее:

(1) остановить скачивание,

(2) удалить старый торрент у себя из клиента (старые серии удалять не надо),

(3) скачать новый торрент и запустить его у себя в клиенте вместо старого, при этом указать клиенту путь в старую папку, куда и должно происходить скачивание новых серий.

Ваш клиент при этом должен произвести хеширование (проверку) старой папки (если не производит сам - помогите ему сделать это), и будет докачивать только те серии, которых у вас ещё нет. Старые серии при этом не удаляются, а продолжают раздаваться!

Eсли вы уже удалили старые серии, то предотвратить повторную закачку старых серий можно, отжав галочку в соответсвующих местах при запуске нового торрента. По возможности, желательно не удалять старые серии как можно дольше, чтобы релизёр не столько продолжал раздавать старые серии, а смог сконцентрироваться на новых.
kino.freetor.icu



Скачать Стрела через торрент https://b.radikal.ru/b32/1910/56/7ca324dac931.png Скачать, смотреть онлайн Стрела бесплантно в хорошем качестве Описание: После кораблекрушения плейбой миллиардер Оливер Куин пропадает и считается погибшим в течение пяти лет, после чего его ... 6.4 10 5
Торрент: Зарегистрирован [2020-01-30 17:51] · скачан: 4 раз
Статус: √ проверено
Размер: 29.08 GB
Как cкачать? Как скачать Стрела через торрент | UTorrent

% Раздел Тема Автор DL S | L
Стрела [ 4.95 GB ] Стрела / Arrow / Сезон: 8 / Серии: 1-10 из 10 [2019 WEB-DLRip] MVO [Jaskier] bober100 Скачать
1 | 0
Стрела [ 16.32 GB ] Стрела / Arrow / Сезон: 8 / Серии: 1-10 из 10 [2019 WEB-DL 720p] MVO [Jaskier] bober100 Скачать
1 | 0

28-11-2019 20:33  

Отключить всю рекламу на сайте

    Дорогой пользователь! Огромная просьба, поблагодарите релизера, оцените раздачу и оставьте свои комментарий, если Вы скачали Стрела через торрент бесплатно!
    Комментировать посты могут только пользователи прошедшие не сложную регистрацию
    Показать сообщения:    

    Стрела через торрент
    Скачать бесплатно Стрела
    Стрела скачать торрент
    Стрела смотреть онлайн
    Cкачать фильм Стрела бесплатно
    Стрела скачать торрент в хорошем качестве
    Стрела смотреть онлайн бесплатно в хорошем качестве


    Вы не можете начинать темы
    Вы не можете отвечать на сообщения
    Вы не можете редактировать свои сообщения
    Вы не можете удалять свои сообщения
    Вы не можете голосовать в опросах
    Вы не можете прикреплять файлы к сообщениям
    Вы можете скачивать файлы