Anonymous, доброй ночи, присоединяйтесь к нам в Telegram!, здесь всегда актуальный адрес сайта, оперативная поддержка и многое другое!

>

5.6

iTunes

7.4

iTunes

5.7

MVO

1

7.7

1 сезон

6.8

iTunes

7.3

1 сезон

13

6.7

1 сезон

8.3

RePack

30

ULTIMATE

pack

9.9

Лицензия

ВАЖНО

ИГРА 18+

pack

7.3

RePack

MK11

7.7

RePack

jed

7.8

RePack

fifa19

8.5

RePack

RDR2

RePack

NEED FOR SPEED™ PAYBACK

4 сезон

9 сезон

Бесстыжие 9 сезон

Все сериалы

все сериалы на PB.wtf

RePack

FAR CRY 5

Anonymous, доброй ночи, мы катастрофически не успеваем собрать деньги на оплату серверов, помогите нам пожалуйста 5,10,15р., для нас важна любая помощь . В качестве благодарности мы отключим Вам всю рекламу на сайте (укажите свой ник в строку Ваше имя)!

×
  
Magnet ссылка

Стрела / Arrow / Сезон: 1 / Серии: 1-23 из 23 (Джеймс Бэмфорд, Джон Беринг, Майкл Шульц) [2012, Приключения, боевик, фантастика, криминал, BDRip 1080p] MVO [TVShows] kino.freetor.icu

Стрела через торрент kino.freetor.icu

Размер: 71.35 GB | Добавлен: 1 год 11 мес. назад | Торрент скачан:7 раз
Смотреть онлайн Стрела | Скачать    Ребята, помогите собрать деньги на оплату серверов!!!

18-10-2019 14:27 Стрела Скачать торрент  

Стрела / Arrow Год выпуска: 2012
Страна: США
Жанр: Приключения, боевик, фантастика, криминал
Продолжительность: ~00:43:00
Перевод: Профессиональный (многоголосый закадровый) | TVShows
Субтитры: Отсутствуют

Режиссёр: Джеймс Бэмфорд, Джон Беринг, Майкл Шульц

В ролях: Рик Гонсалес, Эко Келлум, Джон Барроумен, Колтон Хэйнс, Уилла Холланд, Кэти Кэссиди, Эмили Бетт Рикардс, Пол Блекторн, Дэвид Рэмси, Стивен Амелл

Описание: После кораблекрушения плейбой миллиардер Оливер Куин пропадает и считается погибшим в течение пяти лет, после чего его обнаруживают живым на затерянном острове в Тихом океане. Когда он возвращается домой в Старлинг-Сити, его преданная мать Мойра, столь любимая сестра Теа и лучший друг Томми приветствуют его дома, но они видят, что Оливер изменился после испытаний на острове. Хотя Оливер скрывает правду о человеке, которым он стал…

rating

Качество: BDRip 1080p
Контейнер: MKV

Видео: MPEG-4 AVC, 1920x1080, 23.976 fps, ~9495 kbps
Аудио 1: Русский, AC3, 48 kHz, 6 ch, 384 kbps
Аудио 2: Английский, AAC, 48 kHz, 6 ch, 529-576 kbps


Реклама: Отсутствует
General
Unique ID : 300020430671443479956836761723723351116 (0xE1B5D548636BCA3469A1145491FC844C)
Complete name : Arrow.S01E01.1080p.TVShows.mkv
Format : Matroska
Format version : Version 4
File size : 3.10 GiB
Duration : 42 min 37 s
Overall bit rate : 10.4 Mb/s
Encoded date : UTC 2019-09-21 16:10:56
Writing application : mkvmerge v33.1.0 ('Primrose') 64-bit
Writing library : libebml v1.3.7 + libmatroska v1.5.0

Video
ID : 1
Format : AVC
Format/Info : Advanced Video Codec
Format profile : High@L4.1
Format settings : CABAC / 4 Ref Frames
Format settings, CABAC : Yes
Format settings, Reference frames : 4 frames
Codec ID : V_MPEG4/ISO/AVC
Duration : 42 min 36 s
Bit rate : 9 495 kb/s
Width : 1 920 pixels
Height : 1 080 pixels
Display aspect ratio : 16:9
Frame rate mode : Constant
Frame rate : 23.976 FPS
Color space : YUV
Chroma subsampling : 4:2:0
Bit depth : 8 bits
Scan type : Progressive
Bits/(Pixel*Frame) : 0.191
Stream size : 2.82 GiB (91%)
Title : X264
Writing library : x264 core 133 r2334 a3ac64b
Encoding settings : cabac=1 / ref=4 / deblock=1:0:0 / analyse=0x3:0x133 / me=umh / subme=7 / psy=1 / psy_rd=1.00:0.00 / mixed_ref=1 / me_range=16 / chroma_me=1 / trellis=1 / 8x8dct=1 / cqm=0 / deadzone=21,11 / fast_pskip=0 / chroma_qp_offset=-2 / threads=12 / lookahead_threads=2 / sliced_threads=0 / nr=0 / decimate=1 / interlaced=0 / bluray_compat=0 / constrained_intra=0 / bframes=3 / b_pyramid=2 / b_adapt=1 / b_bias=0 / direct=1 / weightb=1 / open_gop=0 / weightp=2 / keyint=250 / keyint_min=23 / scenecut=40 / intra_refresh=0 / rc_lookahead=40 / rc=2pass / mbtree=1 / bitrate=9495 / ratetol=1.0 / qcomp=0.60 / qpmin=0 / qpmax=69 / qpstep=4 / cplxblur=20.0 / qblur=0.5 / ip_ratio=1.40 / aq=1:1.00
Language : English
Default : Yes
Forced : No

Audio #1
ID : 2
Format : AC-3
Format/Info : Audio Coding 3
Commercial name : Dolby Digital
Codec ID : A_AC3
Duration : 42 min 36 s
Bit rate mode : Constant
Bit rate : 384 kb/s
Channel(s) : 6 channels
Channel layout : L R C LFE Ls Rs
Sampling rate : 48.0 kHz
Frame rate : 31.250 FPS (1536 SPF)
Compression mode : Lossy
Stream size : 117 MiB (4%)
Title : TVShows
Language : Russian
Service kind : Complete Main
Default : Yes
Forced : Yes

Audio #2
ID : 3
Format : AAC LC
Format/Info : Advanced Audio Codec Low Complexity
Codec ID : A_AAC-2
Duration : 42 min 37 s
Bit rate : 542 kb/s
Channel(s) : 6 channels
Channel layout : C L R Ls Rs LFE
Sampling rate : 48.0 kHz
Frame rate : 46.875 FPS (1024 SPF)
Compression mode : Lossy
Stream size : 165 MiB (5%)
Title : Original
Language : English
Default : No
Forced : No
скриншот  скриншот  скриншот  скриншот  
kino.freetor.icu



Скачать Стрела через торрент https://i86.fastpic.ru/big/2019/1018/ba/d847e0c191d6bd1d04e35ff08d768dba.jpg Скачать, смотреть онлайн Стрела бесплантно в хорошем качестве Описание: После кораблекрушения плейбой миллиардер Оливер Куин пропадает и считается погибшим в течение пяти лет, после чего его ... 10 10 2
Торрент: Зарегистрирован [2019-10-18 14:27] · скачан: 7 раз
Статус: √ проверено
Размер: 71.35 GB
Как cкачать? Как скачать Стрела через торрент | UTorrent

% Раздел Тема Автор DL S | L
Стрела [ 23.73 GB ] Стрела / Arrow / Сезон: 7 / Серии: 1-17 из 23 [2018 WEBRip 720p] MVO [Good People] bober100 Скачать
1 | 0
Стрела [ 26.73 GB ] Стрела / Arrow / Сезон: 6 / Серии: 1-23 из 23 [2017 WEB-DL 720p] MVO [Jaskier] bober100 Скачать
1 | 0
Стрела [ 40.51 GB ] Стрела / Arrow / Сезон: 6 / Серии: 1-23 из 23 [2017 WEB-DL 1080p] MVO [NewStudio] bober100 Скачать
1 | 0
Стрела [ 11.24 GB ] Стрела / Arrow / Сезон: 6 / Серии: 1-23 из 23 [2017 WEB-DLRip] MVO [Jaskier] bober100 Скачать
1 | 0
Стрела [ 11.93 GB ] Стрела / Arrow / Сезон: 3 / Серии 1-23 из 23 [2014 WEB-DLRip] MVO - LostFilm Anonymous Скачать
1 | 0
Стрела [ 11.27 GB ] Стрела / Arrow / Сезон: 2 / Серии 1-23 из 23 [2013-2014 WEB-DLRip] MVO Stonebridge Скачать
1 | 0
Стрела [ 11.82 GB ] Стрела / Arrow / Сезон: 6 / Серии 1-22 из 23 [2017 WEB-DLRip] MVO [NewStudio] GEKADOL Скачать
1 | 0

28-11-2019 20:33  

Отключить всю рекламу на сайте

    Дорогой пользователь! Огромная просьба, поблагодарите релизера, оцените раздачу и оставьте свои комментарий, если Вы скачали Стрела через торрент бесплатно!
    Комментировать посты могут только пользователи прошедшие не сложную регистрацию
    Показать сообщения:    

    Стрела через торрент
    Скачать бесплатно Стрела
    Стрела скачать торрент
    Стрела смотреть онлайн
    Cкачать фильм Стрела бесплатно
    Стрела скачать торрент в хорошем качестве
    Стрела смотреть онлайн бесплатно в хорошем качестве


    Вы не можете начинать темы
    Вы не можете отвечать на сообщения
    Вы не можете редактировать свои сообщения
    Вы не можете удалять свои сообщения
    Вы не можете голосовать в опросах
    Вы не можете прикреплять файлы к сообщениям
    Вы можете скачивать файлы