Доктор Стрэндж

Лицензия

Добыча

Дубляж

Дом дракона

1 сезон

Тор

Дубляж

В эфире

Дубляж

Там, где раки поют

MVO

Властелин колец

1 сезон

Ultimate

pack

Рекомендуем

30

Пиратка

ВАЖНО

ВАЖНО

Ghostwire

Пиратка

jed

RePack

nioh2

RePack

RDR2

RePack

NEED FOR SPEED™ PAYBACK

RePack

скачать торрент

Кинопоиск HD

Острые козырьки 6 сезон

6 сезон

FAR CRY 6

RePack

скачать торрент

Лицензия

скачать торрент

MVO

1

1 сезон

скачать торрент

1 сезон

скачать торрент

Лицензия

  

Займёмся любовью / Let's Make Love (Джордж Кьюкор) [1960, мюзикл, мелодрама, комедия, BDRip (AVC) ] 2 x MVO, 2 x DVO

Займёмся любовью через торрент kino.freetor.icu

Размер: 3.01 GB | Добавлен: 2 года 11 мес. назад | Торрент скачан:5 раз
Смотреть онлайн | Скачать   

06-12-2019 08:11 Займёмся любовью Скачать торрент  

Название: Займёмся любовью
Оригинальное название: Let's Make Love
Год выпуска: 1960
Страна: США
Жанр: мюзикл, мелодрама, комедия
Продолжительность: 01:58:37
Перевод: профессиональный многоголосый, профессиональный двухголосый

Режиссер: Джордж Кьюкор
В ролях: Мэрилин Монро, Ив Монтан, Тони Рэндалл, Фрэнки Вон, Уилфрид Хайд-Уайт, Дэвид Бёрнс, Майкл Дэвид, Мара Линн, Дэннис Кинг мл., Джо Бессер, Оскар Береги мл., Милтон Берл, Гарри Чешир, Джеки Ли Кохрен, Джон Крэвен, Бинг Кросби, Рэй Фостер, Ричард Фоулер, Майкл Фокс, Джин Келли, Мэдж Кеннеди, Мэриэн Мэннерс, Майк Мэйсон, Ларри Тор, Джеральдин Уолл

Описание: Миллиардер Жан-Марк Клеман, известный своими многочисленными любовными увлечениями, узнаёт, что его собираются высмеять в новом мюзикле. Он приходит на репетицию, но все принимают его за актёра-двойника, который должен сыграть роль Клемана. В театре он встречает очаровательную актрису Аманду Делл и, чтобы продолжить знакомство с ней, продолжает притворяться бедным актёром. Вокруг этого недоразумения и закручивается интрига фильма. Клеман пытается завоевать сердце Аманды своими артистическими талантами, но вскоре обнаруживает, что в театре полно людей, которые поют, танцуют и читают скетчи намного лучше его. Тогда он пускает в ход своё главное преимущество... (Википедия)



Качество: BDRip (AVC)
Формат: MKV
Видео: MPEG-4 AVC, 2413 Кбит/с, 1024x434, 23.976 кадр/с
Аудио 1: русский, AC3, 192 kbps, 2 ch, 48 kHz [закадровый многоголосый, Первый канал]
Аудио 2: русский, AC3, 192 kbps, 2 ch, 48 kHz [закадровый многоголосый, VHS]
Аудио 3: русский, AC3, 192 kbps, 2 ch, 48 kHz [закадровый двухголосый, R5 Гемини]
Аудио 4: русский, AC3, 192 kbps, 1 ch, 48 kHz [закадровый двухголосый, Светла]
Аудио 5: английский, AC3, 448 kbps, 6 ch, 48 kHz [оригинал]
Субтитры 1: русские
Субтитры 2: английские
Главы/чаптеры
Общее
Уникальный идентификатор : 197420858510951897020713186215838664720 (0x9485DFD278A9CC178008CE599734C810)
Полное имя : D:\Video\Займёмся любовью.1960.BDRip (AVC) by msltel.mkv
Формат : Matroska
Версия формата : Version 4
Размер файла : 3,01 Гбайт
Продолжительность : 1 ч. 58 м.
Общий поток : 3632 Кбит/сек
Название фильма : Rip by msltel
Дата кодирования : UTC 2019-12-06 07:48:14
Программа кодирования : mkvmerge v8.2.0 ('World of Adventure') 64bit
Библиотека кодирования : libebml v1.3.1 + libmatroska v1.4.2

Видео
Идентификатор : 1
Формат : AVC
Формат/Информация : Advanced Video Codec
Профиль формата : High@L4.1
Настройки формата : CABAC / 9 Ref Frames
Параметр CABAC формата : Да
Параметр RefFrames формата : 9 кадров
Идентификатор кодека : V_MPEG4/ISO/AVC
Продолжительность : 1 ч. 58 м.
Битрейт : 2413 Кбит/сек
Ширина : 1024 пикселя
Высота : 434 пикселя
Соотношение сторон : 2,35:1
Режим частоты кадров : Постоянный
Частота кадров : 23,976 (24000/1001) кадра/сек
Цветовое пространство : YUV
Субдискретизация насыщенности : 4:2:0
Битовая глубина : 8 бит
Тип развёртки : Прогрессивная
Бит/(Пиксели*Кадры) : 0.226
Размер потока : 2,00 Гбайт (66%)
Библиотека кодирования : x264 core 157 r2935 545de2f
Настройки программы : cabac=1 / ref=9 / deblock=1:-2:-2 / analyse=0x3:0x113 / me=umh / subme=11 / psy=1 / psy_rd=1.00:0.15 / mixed_ref=1 / me_range=32 / chroma_me=1 / trellis=2 / 8x8dct=1 / cqm=0 / deadzone=21,11 / fast_pskip=0 / chroma_qp_offset=-3 / threads=6 / lookahead_threads=1 / sliced_threads=0 / nr=0 / decimate=1 / interlaced=0 / bluray_compat=0 / constrained_intra=0 / bframes=9 / b_pyramid=2 / b_adapt=2 / b_bias=0 / direct=1 / weightb=1 / open_gop=0 / weightp=2 / keyint=230 / keyint_min=23 / scenecut=40 / intra_refresh=0 / rc_lookahead=40 / rc=crf / mbtree=0 / crf=18.9 / qcomp=0.60 / qpmin=0 / qpmax=69 / qpstep=4 / vbv_maxrate=50000 / vbv_bufsize=62500 / crf_max=0.0 / nal_hrd=none / filler=0 / ip_ratio=1.40 / pb_ratio=1.30 / aq=1:1.00
Язык : English
Default : Да
Forced : Нет

Аудио #1
Идентификатор : 2
Формат : AC-3
Формат/Информация : Audio Coding 3
Коммерческое название : Dolby Digital
Идентификатор кодека : A_AC3
Продолжительность : 1 ч. 58 м.
Вид битрейта : Постоянный
Битрейт : 192 Кбит/сек
Каналы : 2 канала
ChannelLayout : L R
Частота : 48,0 КГц
Частота кадров : 31,250 кадров/сек (1536 SPF)
Метод сжатия : С потерями
Размер потока : 163 Мбайт (5%)
Заголовок : MVO Первый канал
Язык : Russian
ServiceKind/String : Complete Main
Default : Да
Forced : Нет

Аудио #2
Идентификатор : 3
Формат : AC-3
Формат/Информация : Audio Coding 3
Коммерческое название : Dolby Digital
Идентификатор кодека : A_AC3
Продолжительность : 1 ч. 58 м.
Вид битрейта : Постоянный
Битрейт : 192 Кбит/сек
Каналы : 2 канала
ChannelLayout : L R
Частота : 48,0 КГц
Частота кадров : 31,250 кадров/сек (1536 SPF)
Метод сжатия : С потерями
Размер потока : 163 Мбайт (5%)
Заголовок : MVO VHS
Язык : Russian
ServiceKind/String : Complete Main
Default : Нет
Forced : Нет

Аудио #3
Идентификатор : 4
Формат : AC-3
Формат/Информация : Audio Coding 3
Коммерческое название : Dolby Digital
Идентификатор кодека : A_AC3
Продолжительность : 1 ч. 58 м.
Вид битрейта : Постоянный
Битрейт : 192 Кбит/сек
Каналы : 2 канала
ChannelLayout : L R
Частота : 48,0 КГц
Частота кадров : 31,250 кадров/сек (1536 SPF)
Метод сжатия : С потерями
Размер потока : 163 Мбайт (5%)
Заголовок : DVO R5 Гемини
Язык : Russian
ServiceKind/String : Complete Main
Default : Нет
Forced : Нет

Аудио #4
Идентификатор : 5
Формат : AC-3
Формат/Информация : Audio Coding 3
Коммерческое название : Dolby Digital
Идентификатор кодека : A_AC3
Продолжительность : 1 ч. 58 м.
Вид битрейта : Постоянный
Битрейт : 192 Кбит/сек
Каналы : 1 канал
ChannelLayout : C
Частота : 48,0 КГц
Частота кадров : 31,250 кадров/сек (1536 SPF)
Метод сжатия : С потерями
Размер потока : 163 Мбайт (5%)
Заголовок : DVO Светла
Язык : Russian
ServiceKind/String : Complete Main
Default : Нет
Forced : Нет

Аудио #5
Идентификатор : 6
Формат : AC-3
Формат/Информация : Audio Coding 3
Коммерческое название : Dolby Digital
Идентификатор кодека : A_AC3
Продолжительность : 1 ч. 58 м.
Вид битрейта : Постоянный
Битрейт : 448 Кбит/сек
Каналы : 6 каналов
ChannelLayout : L R C LFE Ls Rs
Частота : 48,0 КГц
Частота кадров : 31,250 кадров/сек (1536 SPF)
Метод сжатия : С потерями
Размер потока : 380 Мбайт (12%)
Заголовок : original
Язык : English
ServiceKind/String : Complete Main
Default : Нет
Forced : Нет

Текст #1
Идентификатор : 7
Формат : UTF-8
Идентификатор кодека : S_TEXT/UTF8
Идентификатор кодека/Информация : UTF-8 Plain Text
Продолжительность : 1 ч. 58 м.
Битрейт : 115 бит/сек
ElementCount : 1694
Размер потока : 99,9 Кбайт (0%)
Заголовок : русские
Язык : Russian
Default : Нет
Forced : Нет

Текст #2
Идентификатор : 8
Формат : UTF-8
Идентификатор кодека : S_TEXT/UTF8
Идентификатор кодека/Информация : UTF-8 Plain Text
Продолжительность : 1 ч. 58 м.
Битрейт : 86 бит/сек
ElementCount : 2249
Размер потока : 74,7 Кбайт (0%)
Заголовок : английские
Язык : English
Default : Нет
Forced : Нет

Меню
00:00:00.000 : :Chapter 1
00:05:31.331 : :Chapter 2
00:10:03.394 : :Chapter 3
00:12:24.784 : :Chapter 4
00:19:20.992 : :Chapter 5
00:25:51.967 : :Chapter 6
00:29:53.124 : :Chapter 7
00:36:07.373 : :Chapter 8
00:39:30.534 : :Chapter 9
00:46:11.101 : :Chapter 10
00:51:30.336 : :Chapter 11
00:57:47.963 : :Chapter 12
00:59:45.248 : :Chapter 13
01:06:24.981 : :Chapter 14
01:10:16.502 : :Chapter 15
01:15:13.006 : :Chapter 16
01:21:02.983 : :Chapter 17
01:25:12.104 : :Chapter 18
01:29:12.805 : :Chapter 19
01:33:56.631 : :Chapter 20
01:39:39.974 : :Chapter 21
01:44:32.265 : :Chapter 22
01:47:50.130 : :Chapter 23
01:51:52.079 : :Chapter 24
01:58:37.109 : :Chapter 25



Скачать Займёмся любовью через торрент https://a.radikal.ru/a36/1912/6d/85a110c5ea79.jpg Скачать, смотреть онлайн Займёмся любовью бесплантно в хорошем качестве Описание: Миллиардер Жан-Марк Клеман, известный своими многочисленными любовными увлечениями, узнаёт, что его собираются высмеять в новом ... 5 10 1
Торрент: Зарегистрирован [2019-12-06 08:11] · скачан: 5 раз
Статус: √ проверено
Размер: 3.01 GB
Как cкачать? Как скачать Займёмся любовью через торрент | UTorrent

% Раздел Тема Автор DL S | L
Классика зарубежного кино [ 13.94 GB ] Займёмся любовью / Let's Make Love | MVO | 1080p msltel Скачать
1 | 0
Классика зарубежного кино [ 5.11 GB ] Займёмся любовью / Let's Make Love | MVO | 720p msltel Скачать
1 | 0

28-11-2019 20:33  


Отключить вcю реклaмy на сайте, в т.ч. и в плеере онлайн просмотра!

    Дорогой пользователь! Огромная просьба, поблагодарите релизера, оцените раздачу и оставьте свои комментарий, если Вы скачали Займёмся любовью через торрент бесплатно!!
    Комментировать посты могут только пользователи прошедшие не сложную регистрацию
    Показать сообщения:    


    Займёмся любовью через торрент
    Скачать бесплатно Займёмся любовью
    Займёмся любовью скачать торрент
    Займёмся любовью смотреть онлайн
    Cкачать фильм Займёмся любовью бесплатно
    Займёмся любовью скачать торрент в хорошем качестве
    Займёмся любовью смотреть онлайн бесплатно в хорошем качестве
    Вы не можете начинать темы
    Вы не можете отвечать на сообщения
    Вы не можете редактировать свои сообщения
    Вы не можете удалять свои сообщения
    Вы не можете голосовать в опросах
    Вы не можете прикреплять файлы к сообщениям
    Вы можете скачивать файлы
    Займёмся любовью / Let's Make Love [1960, мюзикл, мелодрама, комедия, BDRip ] 2 x MVO, 2 x DVO смотреть онлайн, скачать торрент picoco.icu