Доктор Стрэндж

Лицензия

Добыча

Дубляж

Дом дракона

1 сезон

Тор

Дубляж

В эфире

Дубляж

Там, где раки поют

MVO

Властелин колец

1 сезон

Аренда ака

pack

Рекомендуем

30

Пиратка

ВАЖНО

ВАЖНО

Ghostwire

Пиратка

jed

RePack

nioh2

RePack

RDR2

RePack

NEED FOR SPEED™ PAYBACK

RePack

скачать торрент

Кинопоиск HD

Острые козырьки 6 сезон

6 сезон

FAR CRY 6

RePack

скачать торрент

Лицензия

скачать торрент

MVO

1

1 сезон

скачать торрент

1 сезон

скачать торрент

Лицензия

  

Мать Иоанна от ангелов / Matka Joanna od aniolow (Ежи Кавалерович) [1961, ужасы, драма, детектив, BDRip 720p ] Дубляж

Мать Иоанна от ангелов через торрент kino.freetor.icu

Размер: 3.82 GB | Добавлен: 2 года 10 мес. назад | Торрент скачан:4 раза
Смотреть онлайн | Скачать   

10-01-2020 06:16 Мать Иоанна от ангелов Скачать торрент  

Название: Мать Иоанна от ангелов
Оригинальное название: Matka Joanna od aniolow
Год выпуска: 1961
Страна: Польша
Жанр: ужасы, драма, детектив
Продолжительность: 01:45:36
Перевод: дублированный

Режиссер: Ежи Кавалерович
В ролях: Люцина Винницка, Мечислав Войт, Анна Чепелевска, Мария Хвалибог, Станислав Ясюкевич, Зыгмунт Зинтель, Ежи Качмарек, Франчишек Печка, Ярослав Кушевский

Описание: Действие фильма разворачивается в XVII веке в женском монастыре. Настоятельницу мать Иоанну одолевают демоны. Чтобы изгнать их, в монастырь направляют ксендза Сурена. Однако ему поначалу не удаётся справиться с ситуацией, и лишь жертвоприношение Сурена помогает настоятельнице освободиться от козней Лукавого... Фильм по повести Ярослава Ивашкевича. В основе сюжета реальный исторический факт: имевшая место в 1634 году коллективная истерия монашек из монастыря урсулинок в Лудене (Франция).



Качество: BDRip 720p
Формат: MKV
Видео: MPEG-4 AVC, 4788 Kбит/с, 946x720, 23.976 Кадр/с
Аудио 1: русский, AC3, 192 kbps, 2 ch, 48 kHz [дублированный, к/с им. Горького]
Аудио 2: польский, AC3, 192 kbps, 2 ch, 48 kHz [оригинал]
Главы/чаптеры
Общее
Уникальный идентификатор : 242083003091274822547677699983799475080 (0xB61F7D8F50B5332CB0229EDC7913DB88)
Полное имя : D:\Video\Мать Иоанна от ангелов.1961.BDRip 720p by msltel.mkv
Формат : Matroska
Версия формата : Version 4
Размер файла : 3,82 Гбайт
Продолжительность : 1 ч. 45 м.
Общий поток : 5174 Кбит/сек
Название фильма : Rip by msltel
Дата кодирования : UTC 2020-01-10 02:31:17
Программа кодирования : mkvmerge v8.2.0 ('World of Adventure') 64bit
Библиотека кодирования : libebml v1.3.1 + libmatroska v1.4.2

Видео
Идентификатор : 1
Формат : AVC
Формат/Информация : Advanced Video Codec
Профиль формата : High@L4.1
Настройки формата : CABAC / 9 Ref Frames
Параметр CABAC формата : Да
Параметр RefFrames формата : 9 кадров
Идентификатор кодека : V_MPEG4/ISO/AVC
Продолжительность : 1 ч. 45 м.
Битрейт : 4788 Кбит/сек
Ширина : 946 пикселей
Высота : 720 пикселей
Соотношение сторон : 4:3
Режим частоты кадров : Постоянный
Частота кадров : 23,976 (24000/1001) кадра/сек
Цветовое пространство : YUV
Субдискретизация насыщенности : 4:2:0
Битовая глубина : 8 бит
Тип развёртки : Прогрессивная
Бит/(Пиксели*Кадры) : 0.293
Размер потока : 3,53 Гбайт (93%)
Библиотека кодирования : x264 core 157 r2935 545de2f
Настройки программы : cabac=1 / ref=9 / deblock=1:-2:-2 / analyse=0x3:0x113 / me=umh / subme=11 / psy=1 / psy_rd=1.00:0.15 / mixed_ref=1 / me_range=32 / chroma_me=1 / trellis=2 / 8x8dct=1 / cqm=0 / deadzone=21,11 / fast_pskip=0 / chroma_qp_offset=-3 / threads=6 / lookahead_threads=1 / sliced_threads=0 / nr=0 / decimate=1 / interlaced=0 / bluray_compat=0 / constrained_intra=0 / bframes=8 / b_pyramid=2 / b_adapt=2 / b_bias=0 / direct=1 / weightb=1 / open_gop=0 / weightp=2 / keyint=230 / keyint_min=23 / scenecut=40 / intra_refresh=0 / rc_lookahead=40 / rc=crf / mbtree=0 / crf=15.0 / qcomp=0.60 / qpmin=0 / qpmax=69 / qpstep=4 / vbv_maxrate=50000 / vbv_bufsize=62500 / crf_max=0.0 / nal_hrd=none / filler=0 / ip_ratio=1.40 / pb_ratio=1.30 / aq=1:1.00
Язык : Polish
Default : Да
Forced : Нет

Аудио #1
Идентификатор : 2
Формат : AC-3
Формат/Информация : Audio Coding 3
Коммерческое название : Dolby Digital
Идентификатор кодека : A_AC3
Продолжительность : 1 ч. 45 м.
Вид битрейта : Постоянный
Битрейт : 192 Кбит/сек
Каналы : 2 канала
ChannelLayout : L R
Частота : 48,0 КГц
Частота кадров : 31,250 кадров/сек (1536 SPF)
Метод сжатия : С потерями
Размер потока : 145 Мбайт (4%)
Заголовок : Дубляж к/с им. Горького
Язык : Russian
ServiceKind/String : Complete Main
Default : Да
Forced : Нет

Аудио #2
Идентификатор : 3
Формат : AC-3
Формат/Информация : Audio Coding 3
Коммерческое название : Dolby Digital
Идентификатор кодека : A_AC3
Продолжительность : 1 ч. 45 м.
Вид битрейта : Постоянный
Битрейт : 192 Кбит/сек
Каналы : 2 канала
ChannelLayout : L R
Частота : 48,0 КГц
Частота кадров : 31,250 кадров/сек (1536 SPF)
Метод сжатия : С потерями
Размер потока : 145 Мбайт (4%)
Заголовок : original
Язык : Polish
ServiceKind/String : Complete Main
Default : Нет
Forced : Нет

Меню
00:00:00.000 : :Глава 01
00:00:18.018 : :Глава 02
00:02:34.554 : :Глава 03
00:14:50.890 : :Глава 04
00:28:58.336 : :Глава 05
00:38:31.976 : :Глава 06
00:52:35.252 : :Глава 07
01:06:40.463 : :Глава 08
01:18:45.020 : :Глава 09
01:28:43.551 : :Глава 10
01:38:10.417 : :Глава 11
01:44:51.785 : :Глава 12



Скачать Мать Иоанна от ангелов через торрент https://c.radikal.ru/c40/2001/54/b6d1b5c887c0.jpg Скачать, смотреть онлайн Мать Иоанна от ангелов бесплантно в хорошем качестве Описание: Действие фильма разворачивается в XVII веке в женском монастыре. Настоятельницу мать Иоанну одолевают демоны. Чтобы изгнать их, в ... 5 10 1
Info! Серебряная раздача, засчитывается только 50% скачанного.
Торрент: Зарегистрирован [2020-01-10 06:16] · скачан: 4 раз
Статус: √ проверено
Размер: 3.82 GB
Как cкачать? Как скачать Мать Иоанна от ангелов через торрент | UTorrent

28-11-2019 20:33  


Отключить вcю реклaмy на сайте, в т.ч. и в плеере онлайн просмотра!

    Дорогой пользователь! Огромная просьба, поблагодарите релизера, оцените раздачу и оставьте свои комментарий, если Вы скачали Мать Иоанна от ангелов через торрент бесплатно!!
    Комментировать посты могут только пользователи прошедшие не сложную регистрацию
    Показать сообщения:    


    Мать Иоанна от ангелов через торрент
    Скачать бесплатно Мать Иоанна от ангелов
    Мать Иоанна от ангелов скачать торрент
    Мать Иоанна от ангелов смотреть онлайн
    Cкачать фильм Мать Иоанна от ангелов бесплатно
    Мать Иоанна от ангелов скачать торрент в хорошем качестве
    Мать Иоанна от ангелов смотреть онлайн бесплатно в хорошем качестве
    Вы не можете начинать темы
    Вы не можете отвечать на сообщения
    Вы не можете редактировать свои сообщения
    Вы не можете удалять свои сообщения
    Вы не можете голосовать в опросах
    Вы не можете прикреплять файлы к сообщениям
    Вы можете скачивать файлы
    Мать Иоанна от ангелов / Matka Joanna od aniolow [1961, ужасы, драма, детектив, BDRip 720p ] Дубляж смотреть онлайн, скачать торрент picoco.icu