Достать ножи: Стеклянная луковица

MVO

Добыча

Дубляж

Уэнсдэй

1 сезон

Тор

Дубляж

13 клиническая

1 сезон

Жестокая ночь

MVO

Одни из нас

1 сезон

Deluxe

pack

Рекомендуем

30

Пиратка

ВАЖНО

ВАЖНО

Ghostwire

Пиратка

jed

RePack

nioh2

RePack

RDR2

RePack

NEED FOR SPEED™ PAYBACK

RePack

скачать торрент

Кинопоиск HD

Острые козырьки 6 сезон

6 сезон

FAR CRY 6

RePack

скачать торрент

Лицензия

скачать торрент

MVO

1

1 сезон

скачать торрент

1 сезон

скачать торрент

Лицензия

  

Жил-был полицейский / Il etait une fois un flic (Жорж Лотнер) [1972, комедия, криминал, BDRip 1080p ] Дубляж, 3 x MVO

Жил-был полицейский через торрент kino.freetor.icu

Размер: 11.69 GB | Добавлен: 3 года назад | Торрент скачан:2 раза
Смотреть онлайн | Скачать | Поддержите нас   

21-01-2020 05:32 Жил-был полицейский Скачать торрент  

Название: Жил-был полицейский
Оригинальное название: Il etait une fois un flic
Год выпуска: 1972
Страна: Италия, Франция
Жанр: комедия, криминал
Продолжительность: 01:36:03
Перевод: дублированный, профессиональный многоголосый
Режиссер: Жорж Лотнер
В ролях: Мишель Константен, Микаэль Лонсдаль, Даниэль Ивернель, Мирей Дарк, Венантино Венантини, Джулиано Дисперати, Эрве Ийен, Робер Дальбан, Анри Гибе, Филлис Мейджор, Жан-Жак Моро, Чарльз Саутвуд, Робер Кастель, Дадо Кростароза, Жан Луизи, Франсинед, Гислен Ойяк, Поль Клеричи, Жанна Кости, Даниэль Огюст, Пицолу Димитриус, Чарли Бертони, Анри Дюжен, Ганс Вервез

Описание: Полицейский инспектор в рамках одного из заданий вживается в роль брата убитого наркобарона. Подставные жена и сын не очень рады присутствию «родственника» и превращают его жизнь в кошмар. А, между тем, операция привлекает международное внимание разнообразных структур: американского агентства по борьбе с наркотиками, тамошней мафии и местного криминалитета, полицейские круги Франции и соседних стран. Плохие парни - на охоте, и основная цель — новая «семья» инспектора... Экранизация произведения Ришара Карона. (Википедия)



Качество: BDRip 1080p
Формат: MKV
Видео: MPEG-4 AVC, 15.9 Mбит/с, 1792x1080, 24 кадр/с
Аудио 1: русский, AC3, 192 kbps, 2 ch, 48 kHz [дублированный, со вставками MVO]
Аудио 2: русский, AC3, 192 kbps, 2 ch, 48 kHz [закадровый многоголосый, Cinema Prestige]
Аудио 3: русский, AC3, 192 kbps, 2 ch, 48 kHz [закадровый многоголосый, Рег ТВ (СПб)]
Аудио 4: русский, AC3, 192 kbps, 2 ch, 48 kHz [закадровый многоголосый]
Аудио 5: французский, DTS, 768 kbps, 2 ch, 48 kHz [оригинал]
Субтитры 1: русские
Субтитры 2: французские
Субтитры 3: английские
Главы/чаптеры
Общее
Уникальный идентификатор : 237076971979001316073278330319009649043 (0xB25B5D2B8EFF494EB7F8538E74CE9193)
Полное имя : D:\Video\Жил-был полицейский.1972.BDRip 1080p by msltel.mkv
Формат : Matroska
Версия формата : Version 4
Размер файла : 11,7 Гбайт
Продолжительность : 1 ч. 36 м.
Общий поток : 17,4 Мбит/сек
Название фильма : Rip by msltel
Дата кодирования : UTC 2020-01-21 02:20:02
Программа кодирования : mkvmerge v8.2.0 ('World of Adventure') 64bit
Библиотека кодирования : libebml v1.3.1 + libmatroska v1.4.2

Видео
Идентификатор : 1
Формат : AVC
Формат/Информация : Advanced Video Codec
Профиль формата : High@L4.1
Настройки формата : CABAC / 4 Ref Frames
Параметр CABAC формата : Да
Параметр RefFrames формата : 4 кадра
Идентификатор кодека : V_MPEG4/ISO/AVC
Продолжительность : 1 ч. 36 м.
Битрейт : 15,9 Мбит/сек
Ширина : 1792 пикселя
Высота : 1080 пикселей
Соотношение сторон : 5:3
Режим частоты кадров : Постоянный
Частота кадров : 24,000 кадра/сек
Цветовое пространство : YUV
Субдискретизация насыщенности : 4:2:0
Битовая глубина : 8 бит
Тип развёртки : Прогрессивная
Бит/(Пиксели*Кадры) : 0.342
Размер потока : 10,7 Гбайт (91%)
Библиотека кодирования : x264 core 157 r2935 545de2f
Настройки программы : cabac=1 / ref=4 / deblock=1:-2:-2 / analyse=0x3:0x113 / me=umh / subme=11 / psy=1 / psy_rd=1.00:0.15 / mixed_ref=1 / me_range=32 / chroma_me=1 / trellis=2 / 8x8dct=1 / cqm=0 / deadzone=21,11 / fast_pskip=0 / chroma_qp_offset=-3 / threads=6 / lookahead_threads=1 / sliced_threads=0 / nr=0 / decimate=1 / interlaced=0 / bluray_compat=0 / constrained_intra=0 / bframes=7 / b_pyramid=2 / b_adapt=2 / b_bias=0 / direct=1 / weightb=1 / open_gop=0 / weightp=2 / keyint=230 / keyint_min=23 / scenecut=40 / intra_refresh=0 / rc_lookahead=40 / rc=crf / mbtree=0 / crf=18.1 / qcomp=0.60 / qpmin=0 / qpmax=69 / qpstep=4 / vbv_maxrate=50000 / vbv_bufsize=62500 / crf_max=0.0 / nal_hrd=none / filler=0 / ip_ratio=1.40 / pb_ratio=1.30 / aq=1:1.00
Язык : French
Default : Да
Forced : Нет

Аудио #1
Идентификатор : 2
Формат : AC-3
Формат/Информация : Audio Coding 3
Коммерческое название : Dolby Digital
Идентификатор кодека : A_AC3
Продолжительность : 1 ч. 36 м.
Вид битрейта : Постоянный
Битрейт : 192 Кбит/сек
Каналы : 2 канала
ChannelLayout : L R
Частота : 48,0 КГц
Частота кадров : 31,250 кадров/сек (1536 SPF)
Метод сжатия : С потерями
Размер потока : 132 Мбайт (1%)
Заголовок : Дубляж
Язык : Russian
ServiceKind/String : Complete Main
Default : Да
Forced : Нет

Аудио #2
Идентификатор : 3
Формат : AC-3
Формат/Информация : Audio Coding 3
Коммерческое название : Dolby Digital
Идентификатор кодека : A_AC3
Продолжительность : 1 ч. 36 м.
Вид битрейта : Постоянный
Битрейт : 192 Кбит/сек
Каналы : 2 канала
ChannelLayout : L R
Частота : 48,0 КГц
Частота кадров : 31,250 кадров/сек (1536 SPF)
Метод сжатия : С потерями
Размер потока : 132 Мбайт (1%)
Заголовок : MVO Cinema Prestige
Язык : Russian
ServiceKind/String : Complete Main
Default : Нет
Forced : Нет

Аудио #3
Идентификатор : 4
Формат : AC-3
Формат/Информация : Audio Coding 3
Коммерческое название : Dolby Digital
Идентификатор кодека : A_AC3
Продолжительность : 1 ч. 36 м.
Вид битрейта : Постоянный
Битрейт : 192 Кбит/сек
Каналы : 2 канала
ChannelLayout : L R
Частота : 48,0 КГц
Частота кадров : 31,250 кадров/сек (1536 SPF)
Метод сжатия : С потерями
Размер потока : 132 Мбайт (1%)
Заголовок : MVO Рег ТВ (СПб)
Язык : Russian
ServiceKind/String : Complete Main
Default : Нет
Forced : Нет

Аудио #4
Идентификатор : 5
Формат : AC-3
Формат/Информация : Audio Coding 3
Коммерческое название : Dolby Digital
Идентификатор кодека : A_AC3
Продолжительность : 1 ч. 36 м.
Вид битрейта : Постоянный
Битрейт : 192 Кбит/сек
Каналы : 2 канала
ChannelLayout : L R
Частота : 48,0 КГц
Частота кадров : 31,250 кадров/сек (1536 SPF)
Метод сжатия : С потерями
Размер потока : 132 Мбайт (1%)
Заголовок : MVO
Язык : Russian
ServiceKind/String : Complete Main
Default : Нет
Forced : Нет

Аудио #5
Идентификатор : 6
Формат : DTS
Формат/Информация : Digital Theater Systems
Идентификатор кодека : A_DTS
Продолжительность : 1 ч. 36 м.
Вид битрейта : Постоянный
Битрейт : 768 Кбит/сек
Каналы : 2 канала
ChannelLayout : L R
Частота : 48,0 КГц
Частота кадров : 93,750 кадра/сек (512 SPF)
Битовая глубина : 16 бит
Метод сжатия : С потерями
Размер потока : 528 Мбайт (4%)
Заголовок : original
Язык : French
Default : Нет
Forced : Нет

Текст #1
Идентификатор : 7
Формат : UTF-8
Идентификатор кодека : S_TEXT/UTF8
Идентификатор кодека/Информация : UTF-8 Plain Text
Продолжительность : 1 ч. 34 м.
Битрейт : 95 бит/сек
ElementCount : 1054
Размер потока : 66,1 Кбайт (0%)
Заголовок : русские
Язык : Russian
Default : Нет
Forced : Нет

Текст #2
Идентификатор : 8
Формат : UTF-8
Идентификатор кодека : S_TEXT/UTF8
Идентификатор кодека/Информация : UTF-8 Plain Text
Продолжительность : 1 ч. 32 м.
Битрейт : 54 бит/сек
ElementCount : 1084
Размер потока : 36,8 Кбайт (0%)
Заголовок : французские
Язык : French
Default : Нет
Forced : Нет

Текст #3
Идентификатор : 9
Формат : UTF-8
Идентификатор кодека : S_TEXT/UTF8
Идентификатор кодека/Информация : UTF-8 Plain Text
Продолжительность : 1 ч. 32 м.
Битрейт : 35 бит/сек
ElementCount : 1099
Размер потока : 24,4 Кбайт (0%)
Заголовок : английские
Язык : English
Default : Нет
Forced : Нет

Меню
00:00:00.000 : en:00:00:00.000
00:07:26.082 : en:00:07:26.082
00:15:53.582 : en:00:15:53.582
00:23:01.415 : en:00:23:01.415
00:32:25.625 : en:00:32:25.625
00:38:51.041 : en:00:38:51.041
00:48:58.375 : en:00:48:58.375
00:56:57.750 : en:00:56:57.750
01:03:47.666 : en:01:03:47.666
01:11:16.207 : en:01:11:16.207
01:20:00.125 : en:01:20:00.125
01:28:04.291 : en:01:28:04.291



Скачать Жил-был полицейский через торрент https://d.radikal.ru/d33/2001/da/6a5d0fdcd5c0.jpg Скачать, смотреть онлайн Жил-был полицейский бесплантно в хорошем качестве Описание: Полицейский инспектор в рамках одного из заданий вживается в роль брата убитого наркобарона. Подставные жена и сын не очень рады ... 10 10 1
Торрент: Зарегистрирован [2020-01-21 05:32] · скачан: 2 раз
Статус: √ проверено
Размер: 11.69 GB
Как cкачать? Как скачать Жил-был полицейский через торрент | UTorrent

28-11-2019 20:33  


Отключить вcю реклaмy на сайте, в т.ч. и в плеере онлайн просмотра!

    Дорогой пользователь! Огромная просьба, поблагодарите релизера, оцените раздачу и оставьте свои комментарий, если Вы скачали Жил-был полицейский через торрент бесплатно!!
    Комментировать посты могут только пользователи прошедшие не сложную регистрацию
    Показать сообщения:    


    Жил-был полицейский через торрент
    Скачать бесплатно Жил-был полицейский
    Жил-был полицейский скачать торрент
    Жил-был полицейский смотреть онлайн
    Cкачать фильм Жил-был полицейский бесплатно
    Жил-был полицейский скачать торрент в хорошем качестве
    Жил-был полицейский смотреть онлайн бесплатно в хорошем качестве
    Вы не можете начинать темы
    Вы не можете отвечать на сообщения
    Вы не можете редактировать свои сообщения
    Вы не можете удалять свои сообщения
    Вы не можете голосовать в опросах
    Вы не можете прикреплять файлы к сообщениям
    Вы можете скачивать файлы
    Жил-был полицейский / Il etait une fois un flic [1972, комедия, криминал, BDRip 1080p ] Дубляж, 3 x MVO смотреть онлайн, скачать торрент picoco.icu