>

5.6

iTunes

6.1

MVO

5.7

MVO

1

7.4

1 сезон

6.8

iTunes

7.2

1 сезон

13

6.7

1 сезон

8.3

RePack

30

Deluxe

pack

9.9

Лицензия

ВАЖНО

ИГРА 18+

pack

7.3

RePack

MK11

7.7

RePack

jed

7.8

RePack

fifa19

8.5

RePack

RDR2

RePack

NEED FOR SPEED™ PAYBACK

4 сезон

9 сезон

Бесстыжие 9 сезон

Все сериалы

все сериалы на PB.wtf

RePack

FAR CRY 5

Anonymous, доброе утро, мы катастрофически не успеваем собрать деньги на оплату серверов, помогите нам пожалуйста 5,10,15р., для нас важна любая помощь . В качестве благодарности мы отключим Вам всю рекламу на сайте (укажите свой ник в строку Ваше имя)!

×
  
Magnet ссылка

Подпольная Империя / Boardwalk Empire / Сезон: 1 / Серии 1-12 из 12 [2010 г., драма, криминал, BDRip 720p] [MVO] (TVShows) kino.freetor.icu

Подпольная Империя через торрент kino.freetor.icu

Размер: 30.51 GB | Добавлен: 1 год 7 мес. назад | Торрент скачан:1 раз
Смотреть онлайн Подпольная Империя | Скачать    Ребята, помогите собрать деньги на оплату серверов!!!

29-01-2020 09:44 Подпольная Империя Скачать торрент  


Подпольная Империя | Boardwalk Empire

Год выпуска
: 2010
Страна: США | HBO
Жанр: драма, криминальный
Продолжительность: ~ 00:57:33
Перевод: Профессиональный (многоголосный, закадровый) |TVShows|
Субтитры: английские

Режиссер: Тимоти Ван Паттен, Аллен Култер

В ролях: Стив Бушеми, Майкл Питт, Келли Макдоналд, Майкл Шеннон, Ши Уигхэм, Алекса Палладино, Майкл Стулбарг, Стивен Грэм, Винсент Пьяцца, Джек Хьюстон и др.

Описание: 1920 год. Через несколько часов Атлантик-Сити — столица развлечений и порока, как и вся Америка, вступит в эпоху «Сухого закона». Енох «Наки» Томпсон, днем — городской казначей, а ночью — хитроумный гангстер со связями на самом «верху», решает воспользоваться ситуацией и получить баснословные прибыли на подпольной торговле алкоголем. Однако не он один жаждет обогатиться на новом промысле…

rating

Качество: BDRip (720p)
Формат: MKV
Видео кодек: h.264
Аудио кодек: AC3
Видео: 1280*720, 23.976 fps, MPEG-4 AVC, ~ 5 000 kbps
Аудио #1: AC3, 48.0 KHz, 6 ch, 384 Kbps ||MVO
Аудио #2: DTS, 48.0 KHz, 6 ch, 1509 Kbps ||ENG
General
Unique ID : 122665045525896352179425338547322875673 (0x5C486DADA3FBF8AB0497243A6D61EF19)
Complete name : F:\Boardwalk.Empire.S01.720p.TVShows\Boardwalk.Empire.S01E01.720p.TVShows.mkv
Format : Matroska
Format version : Version 4 / Version 2
File size : 3.47 GiB
Duration : 1h 12mn
Overall bit rate : 6 872 Kbps
Encoded date : UTC 2020-01-28 07:46:28
Writing application : mkvmerge v33.1.0 ('Primrose') 64-bit
Writing library : libebml v1.3.7 + libmatroska v1.5.0

Video
ID : 1
Format : AVC
Format/Info : Advanced Video Codec
Format profile : High@L4.1
Format settings, CABAC : Yes
Format settings, ReFrames : 5 frames
Codec ID : V_MPEG4/ISO/AVC
Duration : 1h 12mn
Bit rate : 4 972 Kbps
Width : 1 280 pixels
Height : 720 pixels
Display aspect ratio : 16:9
Frame rate mode : Constant
Frame rate : 23.976 fps
Color space : YUV
Chroma subsampling : 4:2:0
Bit depth : 8 bits
Scan type : Progressive
Bits/(Pixel*Frame) : 0.225
Stream size : 2.45 GiB (70%)
Writing library : x264 core 120 r2120 0c7dab9
Encoding settings : cabac=1 / ref=5 / deblock=1:0:0 / analyse=0x3:0x113 / me=umh / subme=8 / psy=1 / psy_rd=1.00:0.00 / mixed_ref=1 / me_range=16 / chroma_me=1 / trellis=1 / 8x8dct=1 / cqm=0 / deadzone=21,11 / fast_pskip=1 / chroma_qp_offset=-2 / threads=12 / sliced_threads=0 / nr=0 / decimate=1 / interlaced=0 / bluray_compat=0 / constrained_intra=0 / bframes=3 / b_pyramid=2 / b_adapt=2 / b_bias=0 / direct=3 / weightb=1 / open_gop=0 / weightp=2 / keyint=240 / keyint_min=24 / scenecut=40 / intra_refresh=0 / rc_lookahead=50 / rc=2pass / mbtree=1 / bitrate=4972 / ratetol=1.0 / qcomp=0.60 / qpmin=0 / qpmax=69 / qpstep=4 / cplxblur=20.0 / qblur=0.5 / ip_ratio=1.40 / aq=1:1.00
Language : English
Default : Yes
Forced : No

Audio #1
ID : 2
Format : AC-3
Format/Info : Audio Coding 3
Mode extension : CM (complete main)
Format settings, Endianness : Big
Codec ID : A_AC3
Duration : 1h 12mn
Bit rate mode : Constant
Bit rate : 384 Kbps
Channel(s) : 6 channels
Channel positions : Front: L C R, Side: L R, LFE
Sampling rate : 48.0 KHz
Compression mode : Lossy
Stream size : 199 MiB (6%)
Title : TVShows
Language : Russian
Default : Yes
Forced : Yes

Audio #2
ID : 3
Format : DTS
Format/Info : Digital Theater Systems
Mode : 16
Format settings, Endianness : Big
Codec ID : A_DTS
Duration : 1h 12mn
Bit rate mode : Constant
Bit rate : 1 509 Kbps
Channel(s) : 6 channels
Channel positions : Front: L C R, Side: L R, LFE
Sampling rate : 48.0 KHz
Bit depth : 24 bits
Compression mode : Lossy
Stream size : 781 MiB (22%)
Title : Original
Language : English
Default : No
Forced : No

Text
ID : 4
Format : UTF-8
Codec ID : S_TEXT/UTF8
Codec ID/Info : UTF-8 Plain Text
Title : English
Language : English
Default : No
Forced : No
скриншот  скриншот  скриншот  
kino.freetor.icu



Скачать Подпольная Империя через торрент http://i64.fastpic.ru/big/2014/0912/e5/aa385b3653976606402c7ef74fdeeee5.jpg Скачать, смотреть онлайн Подпольная Империя бесплантно в хорошем качестве Описание: 1920 год. Через несколько часов Атлантик-Сити — столица развлечений и порока, как и вся Америка, вступит в эпоху «Сухого закона». ... 7.8 10 4
Торрент: Зарегистрирован [2020-01-29 09:44] · скачан: 1 раз
Статус: √ проверено
Размер: 30.51 GB
Как cкачать? Как скачать Подпольная Империя через торрент | UTorrent

% Раздел Тема Автор DL S | L
Подпольная Империя [ 47.41 GB ] Подпольная Империя / Boardwalk Empire / Сезон: 2 / Серии 1-12 из 12 [2011 BDRip 1080p] [MVO] killermax2013 Скачать
1 | 0
Подпольная Империя [ 56.5 GB ] Подпольная Империя / Boardwalk Empire / Сезон: 1 / Серии 1-12 из 12 [2010 BDRip 1080p] [MVO] killermax2013 Скачать
1 | 0
Подпольная Империя [ 3.64 GB ] Подпольная империя / Boardwalk Empire / Сезон: 4 / Серии: 1-3 из 12 [2013 HDTVRip 720p] MVO Original Assasinca Скачать
1 | 0

28-11-2019 20:33  

Отключить всю рекламу на сайте

    Дорогой пользователь! Огромная просьба, поблагодарите релизера, оцените раздачу и оставьте свои комментарий, если Вы скачали Подпольная Империя через торрент бесплатно!
    Комментировать посты могут только пользователи прошедшие не сложную регистрацию
    Показать сообщения:    

    Подпольная Империя через торрент
    Скачать бесплатно Подпольная Империя
    Подпольная Империя скачать торрент
    Подпольная Империя смотреть онлайн
    Cкачать фильм Подпольная Империя бесплатно
    Подпольная Империя скачать торрент в хорошем качестве
    Подпольная Империя смотреть онлайн бесплатно в хорошем качестве


    Вы не можете начинать темы
    Вы не можете отвечать на сообщения
    Вы не можете редактировать свои сообщения
    Вы не можете удалять свои сообщения
    Вы не можете голосовать в опросах
    Вы не можете прикреплять файлы к сообщениям
    Вы можете скачивать файлы