Anonymous, доброй ночи, присоединяйтесь к нам в Telegram!, здесь всегда актуальный адрес сайта, оперативная поддержка и многое другое!

>

5.6

iTunes

7.4

iTunes

5.7

MVO

1

7.7

1 сезон

6.8

iTunes

7.3

1 сезон

13

6.7

1 сезон

8.3

RePack

30

ULTIMATE

pack

9.9

Лицензия

ВАЖНО

ИГРА 18+

pack

7.3

RePack

MK11

7.7

RePack

jed

7.8

RePack

fifa19

8.5

RePack

RDR2

RePack

NEED FOR SPEED™ PAYBACK

4 сезон

9 сезон

Бесстыжие 9 сезон

Все сериалы

все сериалы на PB.wtf

RePack

FAR CRY 5

Anonymous, доброй ночи, мы катастрофически не успеваем собрать деньги на оплату серверов, помогите нам пожалуйста 5,10,15р., для нас важна любая помощь . В качестве благодарности мы отключим Вам всю рекламу на сайте (укажите свой ник в строку Ваше имя)!

×
  
Magnet ссылка

Стрела / Arrow / Сезон: 8 / Серии: 1-10 из 10 (Джон Беринг, Гай Норман Би, Глен Винтер) [2019, фантастика, боевик, драма, криминал, WEB-DLRip] MVO [Jaskier] kino.freetor.icu

Стрела через торрент kino.freetor.icu

Размер: 4.95 GB | Добавлен: 1 год 8 мес. назад | Торрент скачан:39 раз
Смотреть онлайн Стрела | Скачать    Ребята, помогите собрать деньги на оплату серверов!!!

30-01-2020 17:50 Стрела Скачать торрент  

✧ Стрела | Arrow ✧
Год выпуска: 2019
Страна: США
Жанр: фантастика, боевик, драма, криминал
Продолжительность: ~ 00:43:00
Перевод: Профессиональный (многоголосый закадровый) | Jaskier
Субтитры: отсутствуют

Режиссёр: Джон Беринг, Гай Норман Би, Глен Винтер

В ролях: Стивен Амелл, Кэти Кэссиди, Колин Доннелл, Дэвид Рэмси, Уилла Холланд, Сюзанна Томпсон, Пол Блекторн, Эмили Бетт Рикардс, Ману Беннетт, Колтон Хэйнс и другие.

Описание: После кораблекрушения плейбой миллиардер Оливер Куин пропадает и считается погибшим в течение пяти лет, после чего его обнаруживают живым на затерянном острове в Тихом океане. Когда он возвращается домой в Старлинг-Сити, его преданная мать Мойра, столь любимая сестра Теа и лучший друг Томми приветствуют его дома, но они видят, что Оливер изменился после испытаний на острове. Хотя Оливер скрывает правду о человеке, которым он стал…

rating

Качество: WEB-DLRip
Формат: AVI | XviD

Видео: ~ 1400 kbps, 720x400, 23.976 fps
Аудио #1: mp3, 48.0 KHz, 2 ch, 128 kbps - Rus
Аудио #2: mp3, 48.0 KHz, 2 ch, 128 kbps - Eng
скриншот  скриншот  скриншот  

Общее
Полное имя : D:\Arrow. Season 8 (WEB-DLRip l 400p l Jaskier)\Arrow.S08E01.WEB-DLRip.Rus.Eng.Jaskier.avi
Формат : AVI
Формат/Информация : Audio Video Interleave
Размер файла : 507 Мбайт
Продолжительность : 42 м. 25 с.
Общий поток : 1670 Кбит/сек
Программа кодирования : VirtualDubMod 1.5.10.3 | www.virtualdub-fr.org || (build 2550/release)
Библиотека кодирования : VirtualDubMod build 2550/release

Видео
Идентификатор : 0
Формат : MPEG-4 Visual
Профиль формата : Advanced Simple@L5
Параметр BVOP формата : 1
Параметр QPel формата : Нет
Параметр GMC формата : Без точки перехода
Параметр матрицы формата : Выборочная
Идентификатор кодека : XVID
Идентификатор кодека/Подсказка : XviD
Продолжительность : 42 м. 25 с.
Битрейт : 1337 Кбит/сек
Ширина : 720 пикселей
Высота : 400 пикселей
Соотношение сторон : 16:9
Частота кадров : 23,976 (24000/1001) кадра/сек
Цветовое пространство : YUV
Субдискретизация насыщенности : 4:2:0
Битовая глубина : 8 бит
Тип развёртки : Прогрессивная
Метод сжатия : С потерями
Бит/(Пиксели*Кадры) : 0.194
Размер потока : 406 Мбайт (80%)
Библиотека кодирования : XviD 73

Аудио #1
Идентификатор : 1
Формат : MPEG Audio
Версия формата : Version 1
Профиль формата : Layer 3
Режим : Joint stereo
Расширение режима : MS Stereo
Идентификатор кодека : 55
Идентификатор кодека/Подсказка : MP3
Продолжительность : 42 м. 25 с.
Вид битрейта : Постоянный
Битрейт : 128 Кбит/сек
Каналы : 2 канала
Частота : 48,0 КГц
Метод сжатия : С потерями
Размер потока : 38,8 Мбайт (8%)
Выравнивание : Соединение по промежуткам

Аудио #2
Идентификатор : 2
Формат : MPEG Audio
Версия формата : Version 1
Профиль формата : Layer 3
Режим : Joint stereo
Расширение режима : MS Stereo
Идентификатор кодека : 55
Идентификатор кодека/Подсказка : MP3
Продолжительность : 42 м. 25 с.
Вид битрейта : Постоянный
Битрейт : 128 Кбит/сек
Каналы : 2 канала
Частота : 48,0 КГц
Метод сжатия : С потерями
Размер потока : 38,8 Мбайт (8%)
Выравнивание : Соединение по промежуткам

kino.freetor.icu



Скачать Стрела через торрент https://b.radikal.ru/b32/1910/56/7ca324dac931.png Скачать, смотреть онлайн Стрела бесплантно в хорошем качестве Описание: После кораблекрушения плейбой миллиардер Оливер Куин пропадает и считается погибшим в течение пяти лет, после чего его ... 7.8 10 4
Торрент: Зарегистрирован [2020-01-30 17:50] · скачан: 39 раз
Статус: √ проверено
Размер: 4.95 GB
Как cкачать? Как скачать Стрела через торрент | UTorrent

% Раздел Тема Автор DL S | L
Стрела [ 16.32 GB ] Стрела / Arrow / Сезон: 8 / Серии: 1-10 из 10 [2019 WEB-DL 720p] MVO [Jaskier] bober100 Скачать
1 | 0
Стрела [ 29.08 GB ] Стрела / Arrow / Сезон: 8 / Серии: 1-10 из 10 [2019 WEB-DL 1080p] MVO [Jaskier] bober100 Скачать
1 | 0

28-11-2019 20:33  

Отключить всю рекламу на сайте

    Дорогой пользователь! Огромная просьба, поблагодарите релизера, оцените раздачу и оставьте свои комментарий, если Вы скачали Стрела через торрент бесплатно!
    Комментировать посты могут только пользователи прошедшие не сложную регистрацию
    Показать сообщения:    

    Стрела через торрент
    Скачать бесплатно Стрела
    Стрела скачать торрент
    Стрела смотреть онлайн
    Cкачать фильм Стрела бесплатно
    Стрела скачать торрент в хорошем качестве
    Стрела смотреть онлайн бесплатно в хорошем качестве


    Вы не можете начинать темы
    Вы не можете отвечать на сообщения
    Вы не можете редактировать свои сообщения
    Вы не можете удалять свои сообщения
    Вы не можете голосовать в опросах
    Вы не можете прикреплять файлы к сообщениям
    Вы можете скачивать файлы