Anonymous, добрый день, присоединяйтесь к нам в Telegram!, здесь всегда актуальный адрес сайта, оперативная поддержка и многое другое!

>

5.6

iTunes

7.4

iTunes

7.9

MVO

1

7.7

1 сезон

6.8

iTunes

7.3

1 сезон

13

6.7

1 сезон

8.3

RePack

30

ULTIMATE

pack

9.9

Лицензия

ВАЖНО

ИГРА 18+

pack

7.3

RePack

MK11

7.7

RePack

jed

7.8

RePack

fifa19

8.5

RePack

RDR2

RePack

NEED FOR SPEED™ PAYBACK

4 сезон

9 сезон

Бесстыжие 9 сезон

Все сериалы

все сериалы на PB.wtf

RePack

FAR CRY 5

Anonymous, добрый день, мы катастрофически не успеваем собрать деньги на оплату серверов, помогите нам пожалуйста 5,10,15р., для нас важна любая помощь . В качестве благодарности мы отключим Вам всю рекламу на сайте (укажите свой ник в строку Ваше имя)!

×
  
Magnet ссылка

Лёд 2 (Жора Крыжовников) [2020, мелодрама, драма, спорт, WEB-DLRip-AVC] [iTunes] kino.freetor.icu

Лёд 2 через торрент kino.freetor.icu

Размер: 1.46 GB | Добавлен: 1 год 5 мес. назад | Торрент скачан:311 раз
Смотреть онлайн Лёд 2 | Скачать    Ребята, помогите собрать деньги на оплату серверов!!!

25-04-2020 03:12 Лёд 2 Скачать торрент  

Лёд 2
Год выпуска: 2020
Страна: Россия
Жанр: мелодрама, драма, спорт
Продолжительность: 02:10:37
Перевод: Не требуется | iTunes
Субтитры: отсутствуют

Режиссер: Жора Крыжовников

rating

В ролях: Александр Петров, Аглая Тарасова, Мария Аронова, Юлия Хлынина, Надежда Михалкова, Сергей Кузнецов, Сергей Лавыгин, Виталия Корниенко, Вера Тарасова, Евгения Евстигнеева

Описание: Что происходит в сказках после свадьбы принца и принцессы? Фигуристка Надя и хоккеист Саша поженились и теперь мечтают о ребенке. Правда, цена, которую им придется заплатить за эту мечту, будет невообразимо высока. Кажется, что после таких потрясений рассчитывать на счастливый конец уже невозможно. Но если вы так думаете, вы ничего не знаете о настоящих сказках.

Качество: WEB-DLRip-AVC
Формат: MKV

Видео: 720x302 (2,40:1), 24 fps, MPEG-4 AVC, 1404 Кbps avg, 0.269 bit/pixel
Аудио: 48.0 kHz, AC3 Dolby Digital, 2/0 (L,R) ch, ~ 192 kbps
скриншот  скриншот  скриншот  скриншот  скриншот  

Общее
Уникальный идентификатор : 5673716867193834869604102407339079115 (0x444B7D6C7F9D76C59152B97EA1B75CB)
Полное имя : LED.2.2020.iT.WEB-DLRip.1.46Gb.x264.mkv
Формат : Matroska
Версия формата : Version 4
Размер файла : 1,46 Гбайт
Продолжительность : 2 ч. 10 м.
Общий поток : 1598 Кбит/сек
Название фильма : Лёд 2 (2020)
Дата кодирования : UTC 2020-04-25 01:18:47
Программа кодирования : mkvmerge v41.0.0 ('Smarra') 64-bit
Библиотека кодирования : libebml v1.3.9 + libmatroska v1.5.2
Обложка : Yes
Attachments : cover.jpg

Видео
Идентификатор : 1
Формат : AVC
Формат/Информация : Advanced Video Codec
Профиль формата : High@L4.1
Настройки формата : CABAC / 12 Ref Frames
Параметр CABAC формата : Да
Параметр RefFrames формата : 12 кадров
Идентификатор кодека : V_MPEG4/ISO/AVC
Продолжительность : 2 ч. 10 м.
Битрейт : 1404 Кбит/сек
Ширина : 720 пикселей
Высота : 302 пикселя
Соотношение сторон : 2,40:1
Режим частоты кадров : Постоянный
Частота кадров : 24,000 кадра/сек
Цветовое пространство : YUV
Субдискретизация насыщенности : 4:2:0
Битовая глубина : 8 бит
Тип развёртки : Прогрессивная
Бит/(Пиксели*Кадры) : 0.269
Размер потока : 1,28 Гбайт (88%)
Заголовок : #stillet
Библиотека кодирования : x264 core 152 r2851bm ba24899
Настройки программы : cabac=1 / ref=12 / deblock=1:-3:-3 / analyse=0x3:0x113 / me=umh / subme=11 / psy=1 / psy_rd=1.00:0.15 / mixed_ref=1 / me_range=32 / chroma_me=1 / trellis=2 / 8x8dct=1 / cqm=0 / deadzone=21,11 / fast_pskip=0 / chroma_qp_offset=-3 / threads=8 / lookahead_threads=3 / sliced_threads=0 / nr=0 / decimate=0 / interlaced=0 / bluray_compat=0 / constrained_intra=0 / bframes=12 / b_pyramid=2 / b_adapt=2 / b_bias=0 / direct=3 / weightb=1 / open_gop=0 / weightp=2 / keyint=240 / keyint_min=23 / scenecut=40 / intra_refresh=0 / rc=2pass / mbtree=0 / bitrate=1404 / ratetol=1.0 / qcomp=0.60 / qpmin=0 / qpmax=69 / qpstep=4 / cplxblur=20.0 / qblur=0.5 / ip_ratio=1.40 / pb_ratio=1.30 / aq=1:1.00
Язык : English
Default : Да
Forced : Нет

Аудио
Идентификатор : 2
Формат : AC-3
Формат/Информация : Audio Coding 3
Коммерческое название : Dolby Digital
Идентификатор кодека : A_AC3
Продолжительность : 2 ч. 10 м.
Вид битрейта : Постоянный
Битрейт : 192 Кбит/сек
Каналы : 2 канала
ChannelLayout : L R
Частота : 48,0 КГц
Частота кадров : 31,250 кадров/сек (1536 SPF)
Метод сжатия : С потерями
Размер потока : 179 Мбайт (12%)
Заголовок : iTunes
Язык : Russian
Default : Да
Forced : Да

Меню
00:00:00.000 : en:1
00:07:57.852 : en:2
00:11:51.335 : en:3
00:16:46.588 : en:4
00:22:17.627 : en:5
00:25:56.012 : en:6
00:32:11.637 : en:7
00:36:24.681 : en:8
00:44:39.300 : en:9
00:47:56.747 : en:10
00:56:41.813 : en:11
01:00:41.344 : en:12
01:05:41.352 : en:13
01:09:53.312 : en:14
01:18:51.558 : en:15
01:25:30.081 : en:16
01:35:31.682 : en:17
01:44:05.987 : en:18
01:55:41.599 : en:19
01:57:48.058 : en:20

kino.freetor.icu



Скачать Лёд 2 через торрент https://i2.imageban.ru/out/2020/04/24/9e4e93100f72f29989aa27574f5ff0b9.png Скачать, смотреть онлайн Лёд 2 бесплантно в хорошем качестве Описание: Что происходит в сказках после свадьбы принца и принцессы? Фигуристка Надя и хоккеист Саша поженились и теперь мечтают о ребенке. ... 10 10 8
Торрент: Зарегистрирован [2020-04-25 03:12] · скачан: 311 раз
Статус: √ проверено
Размер: 1.46 GB
Как cкачать? Как скачать Лёд 2 через торрент | UTorrent

% Раздел Тема Автор DL S | L
Зарубежные сериалы [ 19.59 GB ] Последнее Королевство / The Last Kingdom / Сезон: 2 / Серии 1-8 из 8 [2017 Исторический WEB-DLRip 1080] MVO [BaibaKo] Dusster Скачать
1 | 0
S.T.A.L.K.E.R. [ 3.2 GB ] S.T.A.L.K.E.R.: Shadow of Chernobyl - Конец Света 2: Последний Восход [Repack RUS] by SeregA-Lus SeregA_Lus Скачать
7 | 0
Зарубежные сериалы [ 12.54 GB ] Оставленные / Остатки / The Leftovers / Сезон: 2 / Серии 1-10 из 10 [2015 HDTVRip-AVC] MVO [NewStudio] GEKADOL Скачать
1 | 0
Зарубежные сериалы [ 5.86 GB ] Лед / Ice / Сезон: 2 / Серии: 1-10 из 10 [2018 WEBRip] MVO [Jaskier] bober100 Скачать
1 | 0
Фильмы до 2000 г. [ 4.11 GB ] Столкновение с бездной / Deep impact [1998 катастрофа WEB-DLRip-AVC Dub 2 x MVO AVO][Open Matte] от ExKinoRay morfyi Скачать
1 | 0
Фильмы (WEB-DL 720p, 1080p) [ 8.25 GB ] Столкновение с бездной / Deep impact [1998 катастрофа WEB-DLRip 720p Dub 2 x MVO AVO][Open Matte] от ExKinoRay morfyi Скачать
1 | 0
Фантастика [ 624 MB ] Роман Злотников Антон Корнилов - Рыцари Порога 06. Последняя крепость [Том 2] [Fan 12 2017 128 kbps MP3] bober100 Скачать
1 | 0

28-11-2019 20:33  

Отключить всю рекламу на сайте

    Дорогой пользователь! Огромная просьба, поблагодарите релизера, оцените раздачу и оставьте свои комментарий, если Вы скачали Лёд 2 через торрент бесплатно!
    Комментировать посты могут только пользователи прошедшие не сложную регистрацию
    Показать сообщения:    

    Лёд 2 через торрент
    Скачать бесплатно Лёд 2
    Лёд 2 скачать торрент
    Лёд 2 смотреть онлайн
    Cкачать фильм Лёд 2 бесплатно
    Лёд 2 скачать торрент в хорошем качестве
    Лёд 2 смотреть онлайн бесплатно в хорошем качестве


    Вы не можете начинать темы
    Вы не можете отвечать на сообщения
    Вы не можете редактировать свои сообщения
    Вы не можете удалять свои сообщения
    Вы не можете голосовать в опросах
    Вы не можете прикреплять файлы к сообщениям
    Вы можете скачивать файлы