Anonymous, доброй ночи, присоединяйтесь к нам в Telegram!, здесь всегда актуальный адрес сайта, оперативная поддержка и многое другое!

>

5.6

iTunes

7.4

iTunes

5.7

MVO

1

7.7

1 сезон

6.8

iTunes

7.3

1 сезон

13

6.7

1 сезон

8.3

RePack

30

ULTIMATE

pack

9.9

Лицензия

ВАЖНО

ИГРА 18+

pack

7.3

RePack

MK11

7.7

RePack

jed

7.8

RePack

fifa19

8.5

RePack

RDR2

RePack

NEED FOR SPEED™ PAYBACK

4 сезон

9 сезон

Бесстыжие 9 сезон

Все сериалы

все сериалы на PB.wtf

RePack

FAR CRY 5

Anonymous, доброй ночи, мы катастрофически не успеваем собрать деньги на оплату серверов, помогите нам пожалуйста 5,10,15р., для нас важна любая помощь . В качестве благодарности мы отключим Вам всю рекламу на сайте (укажите свой ник в строку Ваше имя)!

×
  
Magnet ссылка

Хэппи-энд (Евгений Шелякин) [2020 г., комедия, WEB-DLRip-AVC] [RUS] [iTunes] от wolf1245 & MediaBit kino.freetor.icu

Хэппи-энд через торрент kino.freetor.icu

Раздают: 1 [ 0 KB/s ]
Размер: 752 MB | Добавлен: 1 год 1 мес. назад | Торрент скачан:91 раз
Смотреть онлайн Хэппи-энд | Скачать    Ребята, помогите собрать деньги на оплату серверов!!!

27-08-2020 15:19 Хэппи-энд Скачать торрент  


Хэппи-энд
Информация о фильме:
Название: Хэппи-энд
Год выхода: 2020
Жанр: комедия
Режиссер: Евгений Шелякин

В ролях: Михаил Гомиашвили, Евгения Дмитриева, Владимир Мишуков, Чарай Муэнпрайун, Роза Хаируллина, Евгений Сангаджиев, Алина Астровская, Полина Пушкарук, Анастасия Сомова, Патрида Пьекеу

Описание: Загадочный мужчина приходит в себя на пляже в Таиланде. Он не помнит ни своего имени, ни причины, по которой оказался так далеко от дома. Говорит он только по-русски и отличается крайне скверным характером, однако быстро осваивается на новом месте, налаживает связи и даже организует авантюрный бизнес. И вроде все в его жизни снова благополучно, но один вопрос остается неотвеченным: для чего же он все-таки прилетел на другой конец света?



Страна: Россия, Таиланд
Студия: Вита Актива, 2Д Целлулоид
Продолжительность: 01:40:21
Перевод: Не требуется - iTunes



Информация о файле:
Кодек: AVC
Формат: MKV
Качество: WEB-DLRip-AVC
Видео: MPEG-4 AVC, 726x304 (2.40:1), 950 kbps, 24.000 fps, 0.179
Аудио RU: AAC-HE, 2 ch, 48 kHz, 96 kbps
Субтитры: Нет
Навигация по главам: Есть

|


General
Unique ID : 150240103268746840882769917563494756916 (0x710730FDD76025B54C2EA664DBF87234)
Complete name : D:uTorrentРипы_от_wolf1245_MediaBit.Хэппи-энд (2020) WEB-DLRip-AVC_wolf1245_MediaBit.mkv
Format : Matroska
Format version : Version 4
File size : 752 MiB
Duration : 1 h 40 min
Overall bit rate : 1 047 kb/s
Movie name : Хэппи-энд (2020) WEB-DLRip-AVC_wolf1245_MediaBit
Encoded date : UTC 2020-08-27 15:08:02
Writing application : mkvmerge v49.0.0 ('Sick Of Losing Soulmates') 64-bit
Writing library : libebml v1.4.0 + libmatroska v1.6.1
Cover : Yes
Attachments : Covers.png

Video
ID : 1
Format : AVC
Format/Info : Advanced Video Codec
Format profile : High@L4.1
Format settings : CABAC / 10 Ref Frames
Format settings, CABAC : Yes
Format settings, Reference frames : 10 frames
Codec ID : V_MPEG4/ISO/AVC
Duration : 1 h 40 min
Bit rate : 950 kb/s
Width : 726 pixels
Height : 304 pixels
Display aspect ratio : 2.40:1
Frame rate mode : Constant
Frame rate : 24.000 FPS
Color space : YUV
Chroma subsampling : 4:2:0
Bit depth : 8 bits
Scan type : Progressive
Bits/(Pixel*Frame) : 0.179
Stream size : 681 MiB (91%)
Title : wolf1245_MediaBit
Writing library : x264 core 157 r2958 57baac4
Encoding settings : cabac=1 / ref=10 / deblock=1:-3:-3 / analyse=0x3:0x133 / me=umh / subme=11 / psy=1 / psy_rd=1.00:0.15 / mixed_ref=1 / me_range=48 / chroma_me=1 / trellis=2 / 8x8dct=1 / cqm=0 / deadzone=21,11 / fast_pskip=0 / chroma_qp_offset=-3 / threads=10 / lookahead_threads=2 / sliced_threads=0 / nr=0 / decimate=0 / interlaced=0 / bluray_compat=0 / constrained_intra=0 / bframes=10 / b_pyramid=2 / b_adapt=2 / b_bias=10 / direct=3 / weightb=1 / open_gop=0 / weightp=2 / keyint=240 / keyint_min=24 / scenecut=40 / intra_refresh=0 / rc_lookahead=60 / rc=2pass / mbtree=0 / bitrate=950 / ratetol=1.0 / qcomp=0.60 / qpmin=0 / qpmax=69 / qpstep=4 / cplxblur=20.0 / qblur=0.5 / vbv_maxrate=50000 / vbv_bufsize=62500 / nal_hrd=none / filler=0 / ip_ratio=1.40 / pb_ratio=1.30 / aq=1:1.00
Language : English
Default : Yes
Forced : No
Color range : Limited
Color primaries : BT.709
Transfer characteristics : BT.709
Matrix coefficients : BT.709

Audio
ID : 2
Format : AAC LC SBR
Format/Info : Advanced Audio Codec Low Complexity with Spectral Band Replication
Commercial name : HE-AAC
Format settings : Implicit
Codec ID : A_AAC-2
Duration : 1 h 40 min
Bit rate : 96.0 kb/s
Channel(s) : 2 channels
Channel layout : L R
Sampling rate : 48.0 kHz
Frame rate : 23.438 FPS (2048 SPF)
Compression mode : Lossy
Stream size : 68.9 MiB (9%)
Title : iTunes
Language : Russian
Default : Yes
Forced : No

Menu
00:00:00.000 : :Глава 1
00:06:08.493 : :Глава 2
00:12:30.124 : :Глава 3
00:21:16.316 : :Глава 4
00:31:06.698 : :Глава 5
00:37:10.019 : :Глава 6
00:44:58.320 : :Глава 7
00:49:52.989 : :Глава 8
00:57:14.347 : :Глава 9
01:03:18.210 : :Глава 10
01:11:57.062 : :Глава 11
01:19:38.565 : :Глава 12
01:27:46.010 : :Глава 13
01:32:55.110 : :Глава 14
Релиз от: &
kino.freetor.icu



Скачать Хэппи-энд через торрент https://c.radikal.ru/c33/2008/70/5a67c87056b3.png Скачать, смотреть онлайн Хэппи-энд бесплантно в хорошем качестве Описание: Загадочный мужчина приходит в себя на пляже в Таиланде. Он не помнит ни своего имени, ни причины, по которой оказался так ... 10 10 3
Торрент: Зарегистрирован [2020-08-27 15:19] · скачан: 91 раз
Статус: √ проверено
Размер: 752 MB
Как cкачать? Как скачать Хэппи-энд через торрент | UTorrent

28-11-2019 20:33  

Отключить всю рекламу на сайте

    Дорогой пользователь! Огромная просьба, поблагодарите релизера, оцените раздачу и оставьте свои комментарий, если Вы скачали Хэппи-энд через торрент бесплатно!
    Комментировать посты могут только пользователи прошедшие не сложную регистрацию
    Показать сообщения:    

    Хэппи-энд через торрент
    Скачать бесплатно Хэппи-энд
    Хэппи-энд скачать торрент
    Хэппи-энд смотреть онлайн
    Cкачать фильм Хэппи-энд бесплатно
    Хэппи-энд скачать торрент в хорошем качестве
    Хэппи-энд смотреть онлайн бесплатно в хорошем качестве


    Вы не можете начинать темы
    Вы не можете отвечать на сообщения
    Вы не можете редактировать свои сообщения
    Вы не можете удалять свои сообщения
    Вы не можете голосовать в опросах
    Вы не можете прикреплять файлы к сообщениям
    Вы можете скачивать файлы