Anonymous, доброй ночи, присоединяйтесь к нам в Telegram!, здесь всегда актуальный адрес сайта, оперативная поддержка и многое другое!

>

5.6

iTunes

7.4

iTunes

5.7

MVO

1

7.7

1 сезон

6.8

iTunes

7.3

1 сезон

13

6.7

1 сезон

8.3

RePack

30

ULTIMATE

pack

9.9

Лицензия

ВАЖНО

ИГРА 18+

pack

7.3

RePack

MK11

7.7

RePack

jed

7.8

RePack

fifa19

8.5

RePack

RDR2

RePack

NEED FOR SPEED™ PAYBACK

4 сезон

9 сезон

Бесстыжие 9 сезон

Все сериалы

все сериалы на PB.wtf

RePack

FAR CRY 5

Anonymous, доброй ночи, мы катастрофически не успеваем собрать деньги на оплату серверов, помогите нам пожалуйста 5,10,15р., для нас важна любая помощь . В качестве благодарности мы отключим Вам всю рекламу на сайте (укажите свой ник в строку Ваше имя)!

×
  
Magnet ссылка

Хэппи-энд (Евгений Шелякин) [2020, Комедия, WEB-DLRip-AVC] [iTunes] kino.freetor.icu

Хэппи-энд через торрент kino.freetor.icu

Раздают: 4 [ 0 KB/s ]
Размер: 1.46 GB | Добавлен: 1 год 1 мес. назад | Торрент скачан:738 раз
Смотреть онлайн Хэппи-энд | Скачать    Ребята, помогите собрать деньги на оплату серверов!!!

27-08-2020 18:01 Хэппи-энд Скачать торрент  

Хэппи-энд
Год выпуска: 2020
Страна: Россия , Таиланд
Студия: Вита Актива, 2Д Целлулоид
Жанр: Комедия
Продолжительность: 01:40:21
Перевод: Не требуется | iTunes
Субтитры: отсутствуют

Режиссер: Евгений Шелякин



В ролях: Михаил Гомиашвили, Евгения Дмитриева, Владимир Мишуков, Чарай Муэнпрайун, Роза Хаируллина, Евгений Сангаджиев, Алина Астровская, Полина Пушкарук, Анастасия Сомова, Патрида Пьекеу

Описание: Загадочный мужчина приходит в себя на пляже в Таиланде. Он не помнит ни своего имени, ни причины, по которой оказался так далеко от дома. Говорит он только по-русски и отличается крайне скверным характером, однако быстро осваивается на новом месте, налаживает связи и даже организует авантюрный бизнес. И вроде все в его жизни снова благополучно, но один вопрос остается неотвеченным: для чего же он все-таки прилетел на другой конец света?

Качество: WEB-DLRip-AVC
Формат: MKV

Видео: 1024x428 (2.40:1), 24 fps, MPEG-4 AVC, 1695 Кbps avg, 0.161 bit/pixel
Аудио: AC3, 48 kHz, 6 ch, ~384.00 kbps avg | русский | iTunes
скриншот  скриншот  скриншот  скриншот  скриншот  

Общее
Уникальный идентификатор : 210478744685807179089391072961369009086 (0x9E58BB5100864D078F44713E7A4CEBBE)
Полное имя : Happy.End.2020.iT.WEB-DLRip.146Gb.x264.mkv
Формат : Matroska
Версия формата : Version 4
Размер файла : 1, 46 Гбайт
Продолжительность : 1 ч. 40 м.
Общий поток : 2 080 Кбит/сек
Название фильма : Хэппи-энд (2020)
Дата кодирования : UTC 2020-08-27 03:54:19
Программа кодирования : mkvmerge v47.0.0 ('Black Flag') 64-bit
Библиотека кодирования : libebml v1.3.10 + libmatroska v1.5.2
Обложка : Yes
Attachments : cover.jpg

Видео
Идентификатор : 1
Формат : AVC
Формат/Информация : Advanced Video Codec
Профиль формата : High@L4.1
Настройки формата : CABAC / 10 Ref Frames
Параметр CABAC формата : Да
Параметр RefFrames формата : 10 кадров
Идентификатор кодека : V_MPEG4/ISO/AVC
Продолжительность : 1 ч. 40 м.
Битрейт : 1 695 Кбит/сек
Ширина : 1 024 пикселя
Высота : 428 пикселей
Соотношение сторон : 2, 40:1
Режим частоты кадров : Постоянный
Частота кадров : 24, 000 кадра/сек
Цветовое пространство : YUV
Субдискретизация насыщенности : 4:2:0
Битовая глубина : 8 бит
Тип развёртки : Прогрессивная
Бит/(Пиксели*Кадры) : 0.161
Размер потока : 1, 19 Гбайт (81%)
Заголовок : #stillet
Библиотека кодирования : x264 core 152 r2851bm ba24899
Настройки программы : cabac=1 / ref=10 / deblock=1:-2:-2 / analyse=0x3:0x113 / me=umh / subme=10 / psy=1 / psy_rd=1.00:0.15 / mixed_ref=1 / me_range=32 / chroma_me=1 / trellis=2 / 8x8dct=1 / cqm=0 / deadzone=21, 11 / fast_pskip=0 / chroma_qp_offset=-3 / threads=8 / lookahead_threads=3 / sliced_threads=0 / nr=0 / decimate=0 / interlaced=0 / bluray_compat=0 / constrained_intra=0 / bframes=9 / b_pyramid=2 / b_adapt=2 / b_bias=0 / direct=3 / weightb=1 / open_gop=0 / weightp=2 / keyint=240 / keyint_min=23 / scenecut=40 / intra_refresh=0 / rc=2pass / mbtree=0 / bitrate=1695 / ratetol=1.0 / qcomp=0.60 / qpmin=0 / qpmax=69 / qpstep=4 / cplxblur=20.0 / qblur=0.5 / ip_ratio=1.40 / pb_ratio=1.30 / aq=1:1.00
Язык : Russian
Default : Да
Forced : Нет

Аудио
Идентификатор : 2
Формат : AC-3
Формат/Информация : Audio Coding 3
Коммерческое название : Dolby Digital
Идентификатор кодека : A_AC3
Продолжительность : 1 ч. 40 м.
Вид битрейта : Постоянный
Битрейт : 384 Кбит/сек
Каналы : 6 каналов
Channel layout : L R C LFE Ls Rs
Частота : 48, 0 КГц
Частота кадров : 31, 250 кадров/сек (1536 SPF)
Метод сжатия : С потерями
Размер потока : 276 Мбайт (18%)
Заголовок : iTunes
Язык : Russian
Service kind : Complete Main
Default : Да
Forced : Нет

Меню
00:00:00.000 : en:Глава 1
00:06:08.493 : en:Глава 2
00:12:30.124 : en:Глава 3
00:21:16.316 : en:Глава 4
00:31:06.698 : en:Глава 5
00:37:10.019 : en:Глава 6
00:44:58.320 : en:Глава 7
00:49:52.989 : en:Глава 8
00:57:14.347 : en:Глава 9
01:03:18.210 : en:Глава 10
01:11:57.062 : en:Глава 11
01:19:38.565 : en:Глава 12
01:27:46.010 : en:Глава 13
01:32:55.110 : en:Глава 14

kino.freetor.icu



Скачать Хэппи-энд через торрент https://c.radikal.ru/c33/2008/70/5a67c87056b3.png Скачать, смотреть онлайн Хэппи-энд бесплантно в хорошем качестве Описание: Загадочный мужчина приходит в себя на пляже в Таиланде. Он не помнит ни своего имени, ни причины, по которой оказался так далеко ... 9.9 10 16
Info! Золотая раздача, скачанное не засчитывается.
Торрент: Зарегистрирован [2020-08-27 18:01] · скачан: 738 раз
Статус: √ проверено
Размер: 1.46 GB
Как cкачать? Как скачать Хэппи-энд через торрент | UTorrent

% Раздел Тема Автор DL S | L
Наши сериалы [ 7.79 GB ] Happy End / Хэппи-энд / Сезон: 1 / Серии: 1-8 из 8 [2021 эротика WEB-DL 1080p] bober100 Скачать
7 | 0
Наши сериалы [ 3.8 GB ] Happy End / Хэппи-энд / Сезон: 1 / Серии: 1-8 из 8 [2021 эротика WEB-DLRip-AVC] bober100 Скачать
1 | 0
Наши сериалы [ 4.12 GB ] Happy End / Хэппи-энд / Сезон: 1 / Серии: 1-8 из 8 [2021 эротика WEB-DLRip] GEKADOL Скачать
5 | 0
Наши новые фильмы 2020 - 2021 [ 1.46 GB ] Хэппи-энд [2020 WEB-DLRip] bober100 Скачать
2 | 0
Наши фильмы (HD, WEB-DL 720p, 1080p) [ 3.63 GB ] Хэппи-энд [2020 WEB-DL 1080p] bober100 Скачать
1 | 0
Наши новые фильмы 2020 - 2021 [ 744 MB ] Хэппи-энд [2020 WEB-DLRip] bober100 Скачать
1 | 0
Наши новые фильмы 2020 - 2021 [ 752 MB ] Хэппи-энд [2020 WEB-DLRip-AVC] [RUS] от wolf1245 & MediaBit Lithuania Скачать
2 | 0

28-11-2019 20:33  

Отключить всю рекламу на сайте

    Дорогой пользователь! Огромная просьба, поблагодарите релизера, оцените раздачу и оставьте свои комментарий, если Вы скачали Хэппи-энд через торрент бесплатно!
    Комментировать посты могут только пользователи прошедшие не сложную регистрацию
    Показать сообщения:    

    Хэппи-энд через торрент
    Скачать бесплатно Хэппи-энд
    Хэппи-энд скачать торрент
    Хэппи-энд смотреть онлайн
    Cкачать фильм Хэппи-энд бесплатно
    Хэппи-энд скачать торрент в хорошем качестве
    Хэппи-энд смотреть онлайн бесплатно в хорошем качестве


    Вы не можете начинать темы
    Вы не можете отвечать на сообщения
    Вы не можете редактировать свои сообщения
    Вы не можете удалять свои сообщения
    Вы не можете голосовать в опросах
    Вы не можете прикреплять файлы к сообщениям
    Вы можете скачивать файлы