Anonymous, доброй ночи, присоединяйтесь к нам в Telegram!, здесь всегда актуальный адрес сайта, оперативная поддержка и многое другое!

>

5.6

iTunes

7.4

iTunes

5.7

MVO

1

7.7

1 сезон

6.8

iTunes

7.3

1 сезон

13

6.7

1 сезон

8.3

RePack

30

ULTIMATE

pack

9.9

Лицензия

ВАЖНО

ИГРА 18+

pack

7.3

RePack

MK11

7.7

RePack

jed

7.8

RePack

fifa19

8.5

RePack

RDR2

RePack

NEED FOR SPEED™ PAYBACK

4 сезон

9 сезон

Бесстыжие 9 сезон

Все сериалы

все сериалы на PB.wtf

RePack

FAR CRY 5

Anonymous, доброй ночи, мы катастрофически не успеваем собрать деньги на оплату серверов, помогите нам пожалуйста 5,10,15р., для нас важна любая помощь . В качестве благодарности мы отключим Вам всю рекламу на сайте (укажите свой ник в строку Ваше имя)!

×
  
Magnet ссылка

Тень звезды (Дмитрий Губарев) [2020 г., Музыка, драма, мелодрама, детектив, WEB-DLRip-AVC] от MediaBit kino.freetor.icu

Тень звезды через торрент kino.freetor.icu

Раздают: 1 [ 0 KB/s ]
Размер: 1.59 GB | Добавлен: 1 год назад | Торрент скачан:119 раз
Смотреть онлайн Тень звезды | Скачать    Ребята, помогите собрать деньги на оплату серверов!!!

25-09-2020 16:26 Тень звезды Скачать торрент  


Тень звезды
Информация о фильме:
Название: Тень звезды
Год выхода: 2020
Жанр: Мелодрама, музыка, драма, детектив

Режиссер: Дмитрий Губарев

В ролях: Павел Прилучный, Александра Черкасова-Служитель, Кирилл Нагиев, Юлия Франц, Владимир Сычёв, Павел Штонденко, Надежда Мельникова, Владислав Спирин, Кристина Бойцова

Описание: Популярный рэпер приезжает на гастроли в Питер. Его обожают и ждут фанаты, он на пике славы, он уверен в себе. Вместе со звездой приезжают его менеджер, музыканты и девушка. Неожиданно на музыканта совершается покушение. Ему чудом удаётся избежать смерти, но его менеджер решает нанять охранника. Складывается так, что охранником оказывается… девушка. Она — профессионал своего дела, но в брутальном мире рэпа женщине приходится сложно. Телохранитель разбирается в запутанных отношениях звезды и понимает, что каждый из окружения рэпера мог бы желать его смерти. В решающий момент «бодигард» спасает ему жизнь. Однако, она узнала слишком много, и музыканту приходит время спасать своего телохранителя.



Страна: Россия
Студия: Мотор Фильм Студия
Продолжительность: 01:31:07
Перевод: Не требуется



Информация о файле:
Кодек: AVC
Формат: MKV
Качество: WEB-DLRip-AVC
Видео: MPEG-4 AVC, 1024x430 (2.40:1), 2 122 kb/s, 24.000 fps, 0.201
Аудио RU: AC3, 6 ch, 48 kHz, 384 kbps

*****Рассинхрона нет

General
Unique ID : 18564260321824255196051315287006495364 (0xDF758B33C58743F4ECA14EE5781C284)
Complete name : D:uTorrentРипы_от_wolf1245_MediaBitТень звезды 2020 from wolf1245 & MediaBit.mkv
Format : Matroska
Format version : Version 4
File size : 1.59 GiB
Duration : 1 h 31 min
Overall bit rate : 2 504 kb/s
Movie name : Тень звезды 2020 from wolf1245 & MediaBit
Encoded date : UTC 2020-09-25 15:55:32
Writing application : mkvmerge v50.0.0 ('Awakenings') 64-bit
Writing library : libebml v1.4.0 + libmatroska v1.6.2
Video
ID : 1
Format : AVC
Format/Info : Advanced Video Codec
Format profile : High@L4.1
Format settings : CABAC / 12 Ref Frames
Format settings, CABAC : Yes
Format settings, Reference frames : 12 frames
Codec ID : V_MPEG4/ISO/AVC
Duration : 1 h 31 min
Bit rate : 2 122 kb/s
Width : 1 024 pixels
Height : 430 pixels
Display aspect ratio : 2.40:1
Frame rate mode : Constant
Frame rate : 24.000 FPS
Color space : YUV
Chroma subsampling : 4:2:0
Bit depth : 8 bits
Scan type : Progressive
Bits/(Pixel*Frame) : 0.201
Stream size : 1.35 GiB (85%)
Title : wolf1245 & MediaBit
Writing library : x264 core 157 r2958 57baac4
Encoding settings : cabac=1 / ref=12 / deblock=1:-2:-2 / analyse=0x3:0x133 / me=umh / subme=11 / psy=1 / psy_rd=1.02:0.06 / mixed_ref=1 / me_range=48 / chroma_me=1 / trellis=2 / 8x8dct=1 / cqm=0 / deadzone=21,11 / fast_pskip=0 / chroma_qp_offset=-3 / threads=10 / lookahead_threads=2 / sliced_threads=0 / nr=0 / decimate=0 / interlaced=0 / bluray_compat=0 / constrained_intra=0 / bframes=12 / b_pyramid=2 / b_adapt=2 / b_bias=0 / direct=3 / weightb=1 / open_gop=0 / weightp=2 / keyint=240 / keyint_min=24 / scenecut=40 / intra_refresh=0 / rc_lookahead=55 / rc=2pass / mbtree=0 / bitrate=2122 / ratetol=1.0 / qcomp=0.60 / qpmin=0 / qpmax=69 / qpstep=4 / cplxblur=20.0 / qblur=0.5 / vbv_maxrate=50000 / vbv_bufsize=62500 / nal_hrd=none / filler=0 / ip_ratio=1.40 / pb_ratio=1.30 / aq=2:0.80
Language : Russian
Default : Yes
Forced : No
Audio
ID : 2
Format : AC-3
Format/Info : Audio Coding 3
Commercial name : Dolby Digital
Codec ID : A_AC3
Duration : 1 h 31 min
Bit rate mode : Constant
Bit rate : 384 kb/s
Channel(s) : 6 channels
Channel layout : L R C LFE Ls Rs
Sampling rate : 48.0 kHz
Frame rate : 31.250 FPS (1536 SPF)
Compression mode : Lossy
Stream size : 250 MiB (15%)
Title : Оригинал
Language : Russian
Service kind : Complete Main
Default : Yes
Forced : No
Релиз от: &
kino.freetor.icu



Скачать Тень звезды через торрент https://b.radikal.ru/b33/2009/ac/83cbee57c113.jpg Скачать, смотреть онлайн Тень звезды бесплантно в хорошем качестве Описание: Популярный рэпер приезжает на гастроли в Питер. Его обожают и ждут фанаты, он на пике славы, он уверен в себе. Вместе со ... 10 10 2
Торрент: Зарегистрирован [2020-09-25 16:26] · скачан: 119 раз
Статус: √ проверено
Размер: 1.59 GB
Как cкачать? Как скачать Тень звезды через торрент | UTorrent

28-11-2019 20:33  

Отключить всю рекламу на сайте

    Дорогой пользователь! Огромная просьба, поблагодарите релизера, оцените раздачу и оставьте свои комментарий, если Вы скачали Тень звезды через торрент бесплатно!
    Комментировать посты могут только пользователи прошедшие не сложную регистрацию
    Показать сообщения:    

    Тень звезды через торрент
    Скачать бесплатно Тень звезды
    Тень звезды скачать торрент
    Тень звезды смотреть онлайн
    Cкачать фильм Тень звезды бесплатно
    Тень звезды скачать торрент в хорошем качестве
    Тень звезды смотреть онлайн бесплатно в хорошем качестве


    Вы не можете начинать темы
    Вы не можете отвечать на сообщения
    Вы не можете редактировать свои сообщения
    Вы не можете удалять свои сообщения
    Вы не можете голосовать в опросах
    Вы не можете прикреплять файлы к сообщениям
    Вы можете скачивать файлы