Anonymous, доброй ночи, присоединяйтесь к нам в Telegram!, здесь всегда актуальный адрес сайта, оперативная поддержка и многое другое!

>

5.6

iTunes

7.4

iTunes

5.7

MVO

1

7.7

1 сезон

6.8

iTunes

7.3

1 сезон

13

6.7

1 сезон

8.3

RePack

30

ULTIMATE

pack

9.9

Лицензия

ВАЖНО

ИГРА 18+

pack

7.3

RePack

MK11

7.7

RePack

jed

7.8

RePack

fifa19

8.5

RePack

RDR2

RePack

NEED FOR SPEED™ PAYBACK

4 сезон

9 сезон

Бесстыжие 9 сезон

Все сериалы

все сериалы на PB.wtf

RePack

FAR CRY 5

Anonymous, доброй ночи, мы катастрофически не успеваем собрать деньги на оплату серверов, помогите нам пожалуйста 5,10,15р., для нас важна любая помощь . В качестве благодарности мы отключим Вам всю рекламу на сайте (укажите свой ник в строку Ваше имя)!

×
  
Magnet ссылка

Самый Новый год! (Антонина Руже) [2019, Комедия, фантастика, WEB-DLRip-AVC] [RUS] [ IVI] от MediaBit kino.freetor.icu

Самый Новый год! через торрент kino.freetor.icu

Раздают: 1 [ 0 KB/s ]
Размер: 1.45 GB | Добавлен: 9 мес. назад | Торрент скачан:507 раз
Смотреть онлайн Самый Новый год! | Скачать    Ребята, помогите собрать деньги на оплату серверов!!!

31-12-2020 13:53 Самый Новый год! Скачать торрент  


Самый Новый год!
Информация о фильме:
Название: Самый Новый год!
Год выхода: 2020
Жанр: Комедия, фантастика
Режиссер: Антонина Руже

В ролях: Роман Курцын, Алина Алексеева, Елизавета Кононова, Ксения Радченко, Иван Макаревич, Владимир Сычев, Наталья Щукина, Антон Шурцов, Артем Костюнёв, Юлия Серина и др.

Описание: У Саши три проблемы: девушка, которая хочет свадьбу, на которую он никак не может решиться, ведь он всего-навсего ветеринарный фельдшер и чистит уши собакам, родители, ведь маме не нравится Оля, а папе не нравится его работа, потому что Саша чистит уши собакам, и третья - он не нравится Олиной маме, потому что... да, потому что он чистит уши собакам. В новогоднюю ночь все собираются у Саши дома, чтобы отпраздновать еще и его день рождения, ведь родился он 1 января. Оля приготовила ему подарок - он скоро станет папой! Чтобы хоть на какое-то время остаться наедине со своими мыслями, Саша прячется в туалете. Нажав на смыв, он оказывается... в квартире своих родителей за два часа до своего рождения. И на дворе 31 декабря 1992 года.



Страна: Россия
Студия: КиноФирма
Продолжительность: 01:19:36
Перевод: Не требуется - IVI



Информация о файле:
Кодек: AVC
Формат: MKV
Качество: WEBRip-AVC
Видео: MPEG-4 AVC, 1024x426, 24.000 fps, 2225 kbps
Аудио RU: AC3, 6 ch, 48 kHz, 384 kbps
Субтитры: Нет
Навигация по главам: Нет

General
Unique ID : 36650866886849476578601248249154835876 (0x1B92B34078CFA0E45E4578911AFB15A4)
Complete name : D:uTorrentРипы_от_wolf1245_MediaBitСамый Новый год!.2020.IVI.WEBRip-AVC_wolf1245_MediaBit.mkv
Format : Matroska
Format version : Version 4
File size : 1.45 GiB
Duration : 1 h 19 min
Overall bit rate : 2 609 kb/s
Movie name : Самый Новый год!.2020.IVI.WEBRip-AVC_wolf1245_MediaBit
Encoded date : UTC 2020-12-31 13:38:44
Writing application : mkvmerge v51.0.0 ('I Wish') 64-bit
Writing library : libebml v1.4.0 + libmatroska v1.6.2
Video
ID : 1
Format : AVC
Format/Info : Advanced Video Codec
Format profile : High@L4.1
Format settings : CABAC / 12 Ref Frames
Format settings, CABAC : Yes
Format settings, Reference frames : 12 frames
Codec ID : V_MPEG4/ISO/AVC
Duration : 1 h 19 min
Bit rate : 2 225 kb/s
Width : 1 024 pixels
Height : 426 pixels
Display aspect ratio : 2.40:1
Frame rate mode : Constant
Frame rate : 24.000 FPS
Color space : YUV
Chroma subsampling : 4:2:0
Bit depth : 8 bits
Scan type : Progressive
Bits/(Pixel*Frame) : 0.213
Stream size : 1.24 GiB (85%)
Title : wolf1245_MediaBit
Writing library : x264 core 157 r2958 57baac4
Encoding settings : cabac=1 / ref=12 / deblock=1:-2:-2 / analyse=0x3:0x133 / me=umh / subme=10 / psy=1 / psy_rd=1.00:0.10 / mixed_ref=1 / me_range=48 / chroma_me=1 / trellis=2 / 8x8dct=1 / cqm=0 / deadzone=21,11 / fast_pskip=0 / chroma_qp_offset=-3 / threads=10 / lookahead_threads=2 / sliced_threads=0 / nr=0 / decimate=0 / interlaced=0 / bluray_compat=0 / constrained_intra=0 / bframes=12 / b_pyramid=2 / b_adapt=2 / b_bias=0 / direct=3 / weightb=1 / open_gop=0 / weightp=2 / keyint=240 / keyint_min=24 / scenecut=40 / intra_refresh=0 / rc_lookahead=60 / rc=2pass / mbtree=0 / bitrate=2225 / ratetol=1.0 / qcomp=0.60 / qpmin=0 / qpmax=69 / qpstep=4 / cplxblur=20.0 / qblur=0.5 / vbv_maxrate=50000 / vbv_bufsize=62500 / nal_hrd=none / filler=0 / ip_ratio=1.40 / pb_ratio=1.30 / aq=1:0.80
Language : Russian
Default : Yes
Forced : No
Audio
ID : 2
Format : AC-3
Format/Info : Audio Coding 3
Commercial name : Dolby Digital
Codec ID : A_AC3
Duration : 1 h 19 min
Bit rate mode : Constant
Bit rate : 384 kb/s
Channel(s) : 6 channels
Channel layout : L R C LFE Ls Rs
Sampling rate : 48.0 kHz
Frame rate : 31.250 FPS (1536 SPF)
Compression mode : Lossy
Stream size : 219 MiB (15%)
Title : RUS | IVI
Language : Russian
Service kind : Complete Main
Default : Yes
Forced : No
Релиз от: & &
kino.freetor.icu



Скачать Самый Новый год! через торрент https://i114.fastpic.ru/big/2020/1231/d9/960f3ef6e672857be4a02119f81b5fd9.png Скачать, смотреть онлайн Самый Новый год! бесплантно в хорошем качестве Описание: У Саши три проблемы: девушка, которая хочет свадьбу, на которую он никак не может решиться, ведь он всего-навсего ветеринарный ... 10 10 14
Info! Золотая раздача, скачанное не засчитывается.
Торрент: Зарегистрирован [2020-12-31 13:53] · скачан: 507 раз
Статус: √ проверено
Размер: 1.45 GB
Как cкачать? Как скачать Самый Новый год! через торрент | UTorrent

28-11-2019 20:33  

Отключить всю рекламу на сайте

01-01-2021 19:35 Самый Новый год! Скачать торрент  

Хороший, легкий и самое главное незатянутый новогодний фильм.kino.freetor.icu



    Дорогой пользователь! Огромная просьба, поблагодарите релизера, оцените раздачу и оставьте свои комментарий, если Вы скачали Самый Новый год! через торрент бесплатно!
    Комментировать посты могут только пользователи прошедшие не сложную регистрацию
    Показать сообщения:    

    Самый Новый год! через торрент
    Скачать бесплатно Самый Новый год!
    Самый Новый год! скачать торрент
    Самый Новый год! смотреть онлайн
    Cкачать фильм Самый Новый год! бесплатно
    Самый Новый год! скачать торрент в хорошем качестве
    Самый Новый год! смотреть онлайн бесплатно в хорошем качестве


    Вы не можете начинать темы
    Вы не можете отвечать на сообщения
    Вы не можете редактировать свои сообщения
    Вы не можете удалять свои сообщения
    Вы не можете голосовать в опросах
    Вы не можете прикреплять файлы к сообщениям
    Вы можете скачивать файлы