Anonymous, доброе утро, присоединяйтесь к нам в Telegram!, здесь всегда актуальный адрес сайта, оперативная поддержка и многое другое!

>

5.5

iTunes

7.4

iTunes

7.9

iTunes

1

7.7

1 сезон

6.8

iTunes

7.3

1 сезон

13

6.7

1 сезон

8.3

RePack

30

ULTIMATE

pack

9.9

Лицензия

ВАЖНО

ИГРА 18+

pack

7.3

RePack

MK11

7.7

RePack

jed

7.8

RePack

fifa19

8.5

RePack

RDR2

RePack

NEED FOR SPEED™ PAYBACK

4 сезон

9 сезон

Бесстыжие 9 сезон

Все сериалы

все сериалы на PB.wtf

RePack

FAR CRY 5

Anonymous, доброе утро, мы катастрофически не успеваем собрать деньги на оплату серверов, помогите нам пожалуйста 5,10,15р., для нас важна любая помощь . В качестве благодарности мы отключим Вам всю рекламу на сайте (укажите свой ник в строку Ваше имя)!

×
  
Magnet ссылка

Вдова (Иван Минин) [2019, Ужасы, триллер, WEB-DLRip-AVC] [RUS] [iTunes] от MediaBit kino.freetor.icu

Вдова через торрент kino.freetor.icu

Раздают: 1 [ 0 KB/s ]
Размер: 1.45 GB | Добавлен: 9 мес. назад | Торрент скачан:205 раз
Смотреть онлайн Вдова | Скачать    Ребята, помогите собрать деньги на оплату серверов!!!

01-01-2021 17:16 Вдова Скачать торрент  


Вдова
Информация о фильме:
Название: Вдова
Год выхода: 2020
Жанр: Ужасы, триллер
Режиссер: Иван Минин

В ролях: Виктория Потемина, Анастасия Грибова, Маргарита Бычкова, Илья Агапов, Алексей Анискин, Константин Нестерко, Олег Чугунов и др.

Описание: Ежегодно в лесах на севере Ленинградской области пропадает более 300 человек. Известны случаи, когда тела пропавших находят посреди леса – полностью обнаженными, без каких-либо следов насильственной смерти. Во время учений команда волонтеров-спасателей получает сообщение о потерявшемся мальчике. Углубляясь в глухой лес, поисковый отряд сталкивается со зловещей сущностью: согласно преданиям, здесь обитает неупокоенный дух давно погибшей ведьмы, которую местные называют Хромой Вдовой. Они верят, что встреча со Вдовой несет смерть…



Страна: Россия
Студия: QS FILMS
Продолжительность: 01:22:27
Перевод: Не требуется | iTunes



Информация о файле:
Кодек: AVC
Формат: MKV
Качество: WEB-DLRip-AVC
Видео: MPEG-4 AVC, 1024x428, 25.000 fps, 2135 kbps
Аудио RU: AC3, 6 ch, 48 kHz, 384 kbps
Субтитры: Нет
Навигация по главам: Да

General
Unique ID : 306178781469916582344467553922802995365 (0xE657E36B5B7132A1F7731AA4342350A5)
Complete name : D:uTorrentРипы_от_wolf1245_MediaBitVdova.2020.iTunes.WEB-DLRip-AVC_wolf1245_MediaBit.mkv
Format : Matroska
Format version : Version 4
File size : 1.45 GiB
Duration : 1 h 22 min
Overall bit rate : 2 516 kb/s
Movie name : Vdova.2020.iTunes.WEB-DLRip-AVC_wolf1245_MediaBit
Encoded date : UTC 2021-01-01 17:01:59
Writing application : mkvmerge v51.0.0 ('I Wish') 64-bit
Writing library : libebml v1.4.0 + libmatroska v1.6.2
Video
ID : 1
Format : AVC
Format/Info : Advanced Video Codec
Format profile : High@L4.1
Format settings : CABAC / 12 Ref Frames
Format settings, CABAC : Yes
Format settings, Reference frames : 12 frames
Codec ID : V_MPEG4/ISO/AVC
Duration : 1 h 22 min
Bit rate : 2 135 kb/s
Width : 1 024 pixels
Height : 428 pixels
Display aspect ratio : 2.40:1
Frame rate mode : Constant
Frame rate : 25.000 FPS
Color space : YUV
Chroma subsampling : 4:2:0
Bit depth : 8 bits
Scan type : Progressive
Bits/(Pixel*Frame) : 0.195
Stream size : 1.23 GiB (85%)
Title : wolf1245_MediaBit
Writing library : x264 core 157 r2958 57baac4
Encoding settings : cabac=1 / ref=12 / deblock=1:-2:-2 / analyse=0x3:0x133 / me=umh / subme=11 / psy=1 / psy_rd=1.02:0.05 / mixed_ref=1 / me_range=48 / chroma_me=1 / trellis=2 / 8x8dct=1 / cqm=0 / deadzone=21,11 / fast_pskip=0 / chroma_qp_offset=-3 / threads=10 / lookahead_threads=2 / sliced_threads=0 / nr=0 / decimate=0 / interlaced=0 / bluray_compat=0 / constrained_intra=0 / bframes=12 / b_pyramid=2 / b_adapt=2 / b_bias=0 / direct=3 / weightb=1 / open_gop=0 / weightp=2 / keyint=250 / keyint_min=25 / scenecut=40 / intra_refresh=0 / rc_lookahead=40 / rc=2pass / mbtree=0 / bitrate=2135 / ratetol=1.0 / qcomp=0.60 / qpmin=0 / qpmax=69 / qpstep=4 / cplxblur=20.0 / qblur=0.5 / vbv_maxrate=50000 / vbv_bufsize=62500 / nal_hrd=none / filler=0 / ip_ratio=1.40 / pb_ratio=1.30 / aq=1:0.80
Language : Russian
Default : Yes
Forced : No
Color range : Limited
Color primaries : BT.709
Transfer characteristics : BT.709
Matrix coefficients : BT.709
Audio
ID : 2
Format : AC-3
Format/Info : Audio Coding 3
Commercial name : Dolby Digital
Codec ID : A_AC3
Duration : 1 h 22 min
Bit rate mode : Constant
Bit rate : 384 kb/s
Channel(s) : 6 channels
Channel layout : L R C LFE Ls Rs
Sampling rate : 48.0 kHz
Frame rate : 31.250 FPS (1536 SPF)
Compression mode : Lossy
Stream size : 226 MiB (15%)
Title : RUS | iTunes
Language : Russian
Service kind : Complete Main
Default : Yes
Forced : No
Menu
00:00:00.000 : :Глава 1
00:08:01.760 : :Глава 2
00:16:15.760 : :Глава 3
00:24:30.599 : :Глава 4
00:32:46.319 : :Глава 5
00:41:05.519 : :Глава 6
00:49:17.718 : :Глава 7
00:57:37.638 : :Глава 8
01:05:45.558 : :Глава 9
01:14:07.078 : :Глава 10
01:22:26.998 : :Глава 1
Релиз от: & &
kino.freetor.icu



Скачать Вдова через торрент http://lostpix.com/thumbs/2020-12/31/dt93y71qobhz3lgumr0fudugr.png Скачать, смотреть онлайн Вдова бесплантно в хорошем качестве Описание: Ежегодно в лесах на севере Ленинградской области пропадает более 300 человек. Известны случаи, когда тела пропавших находят ... 10 10 8
Торрент: Зарегистрирован [2021-01-01 17:16] · скачан: 205 раз
Статус: √ проверено
Размер: 1.45 GB
Как cкачать? Как скачать Вдова через торрент | UTorrent

% Раздел Тема Автор DL S | L
Фильмы 2021 [DVDrip, WEB-DLRip, HDrip] (DUB, MVO) [ 3.05 GB ] Чёрная Вдова / Black Widow [2021 HDRip-AVC] DUB MVO [HDRezka Studio ] от MediaBit Lithuania Скачать
6 | 0
Азиатские фильмы [ 1.46 GB ] Китайская вдова / Feng huo fang fei / In Harm's Way [2017 Мело военный история HDRip-AVC] MVO [HDRezka Studio] от MediaBit Lithuania Скачать
1 | 0
Фильмы 2019-2020 [DVDrip, WEB-DLRip, HDrip] (DUB, MVO) [ 2.05 GB ] Вдовий маяк / Widow's Point [2019 WEB-DLRip-AVC] MVO [IVI] от MediaBit Lithuania Скачать
2 | 0

28-11-2019 20:33  

Отключить всю рекламу на сайте

04-01-2021 10:48 Вдова Скачать торрент  

Фильм не понравился. Авторы насмотрелись "Ведьма из Блэр" и другие фильмы подобного содержания. И под этим впечатлением решили создать это произведение, на мой взгляд - не особенно получилось.kino.freetor.icu



06-01-2021 14:13 Вдова Скачать торрент  

скачал. посмотрел. согласен с предыдущим оратором)kino.freetor.icu



08-02-2021 23:49 Вдова Скачать торрент  

скачал. посмотрел. согласен с предыдущим оратором, который согласен с предыдущим)kino.freetor.icu



31-03-2021 12:43 Вдова Скачать торрент  

Просто соглашусь с ораторами. Скачивать не стану.kino.freetor.icu



    Дорогой пользователь! Огромная просьба, поблагодарите релизера, оцените раздачу и оставьте свои комментарий, если Вы скачали Вдова через торрент бесплатно!
    Комментировать посты могут только пользователи прошедшие не сложную регистрацию
    Показать сообщения:    

    Вдова через торрент
    Скачать бесплатно Вдова
    Вдова скачать торрент
    Вдова смотреть онлайн
    Cкачать фильм Вдова бесплатно
    Вдова скачать торрент в хорошем качестве
    Вдова смотреть онлайн бесплатно в хорошем качестве


    Вы не можете начинать темы
    Вы не можете отвечать на сообщения
    Вы не можете редактировать свои сообщения
    Вы не можете удалять свои сообщения
    Вы не можете голосовать в опросах
    Вы не можете прикреплять файлы к сообщениям
    Вы можете скачивать файлы