Anonymous, доброй ночи, присоединяйтесь к нам в Telegram!, здесь всегда актуальный адрес сайта, оперативная поддержка и многое другое!

>

5.6

iTunes

7.4

iTunes

5.7

MVO

1

7.7

1 сезон

6.8

iTunes

7.3

1 сезон

13

6.7

1 сезон

8.3

RePack

30

ULTIMATE

pack

9.9

Лицензия

ВАЖНО

ИГРА 18+

pack

7.3

RePack

MK11

7.7

RePack

jed

7.8

RePack

fifa19

8.5

RePack

RDR2

RePack

NEED FOR SPEED™ PAYBACK

4 сезон

9 сезон

Бесстыжие 9 сезон

Все сериалы

все сериалы на PB.wtf

RePack

FAR CRY 5

Anonymous, доброй ночи, мы катастрофически не успеваем собрать деньги на оплату серверов, помогите нам пожалуйста 5,10,15р., для нас важна любая помощь . В качестве благодарности мы отключим Вам всю рекламу на сайте (укажите свой ник в строку Ваше имя)!

×
  
Magnet ссылка

Неадекватные люди 2 (Роман Каримов) [2020 г., драма, комедия, WEB-DLRip, Не требуется Русский"iTunes"] kino.freetor.icu

Неадекватные люди 2 через торрент kino.freetor.icu

Размер: 818 MB | Добавлен: 9 мес. назад | Торрент скачан:73 раза
Смотреть онлайн Неадекватные люди 2 | Скачать    Ребята, помогите собрать деньги на оплату серверов!!!

05-01-2021 18:28 Неадекватные люди 2 Скачать торрент  

Неадекватные люди 2
Год выпуска: 2020
Страна: Россия / Trio Film
Жанр: драма, комедия
Продолжительность: 02:15:53
Перевод: Не требуется Русский (iTunes)

Режиссер: Роман Каримов

rating

В ролях: Ингрид Олеринская, Илья Любимов, Евгений Цыганов, Мария Горячева, Никита Санаев, Роман Хан, Артём Цуканов, Андрей Бебуришвили, Алексей Гоман, Александра Булычёва

Описание: Кристина живет с Виталием тихой семейной жизнью, но ее саркастический взгляд на мир не совпадает с идеалами Виталия. Пока она занимается домашними делами, он все больше времени уделяет работе, и Кристина начинает подозревать, что это как-то связано с появлением в офисе его молодой помощницы Сони.

Качество: WEB-DLRip
Формат: AVI
Видео кодек: DivX
Аудио кодек: MP3
Видео: 640x360 (1.78:1), 24.000 fps, DivX Codec 4.x ~703 kbps avg, 0.13 bit/pixel
Аудио: 48 kHz, MPEG Layer 3, 2 ch, ~128.00 kbps avg
скриншот   скриншот   скриншот   скриншот   скриншот   скриншот   скриншот   скриншот  

Общее
Полное имя : E:\ФИЛЬМЫ\ Неадекватные люди 2.2020.WEB-DLRip.avi
Формат : AVI
Формат/Информация : Audio Video Interleave
Размер файла : 818 Мбайт
Продолжительность : 2 ч. 15 м.
Общий поток : 841 Кбит/сек
Программа кодирования : VirtualDubMod 1.5.10.3 | www.virtualdub-fr.org || (build 2550/release)
Библиотека кодирования : VirtualDubMod build 2550/release

Видео
Идентификатор : 0
Формат : MPEG-4 Visual
Профиль формата : Advanced Simple@L5
Настройки формата : BVOP2
Параметр BVOP формата : 2
Параметр QPel формата : Нет
Параметр GMC формата : Без точки перехода
Параметр матрицы формата : Default (MPEG)
Режим смешивания : Сжатый битовый поток
Идентификатор кодека : DIVX
Идентификатор кодека/Информация : Project Mayo
Идентификатор кодека/Подсказка : DivX 4
Продолжительность : 2 ч. 15 м.
Битрейт : 704 Кбит/сек
Ширина : 640 пикселей
Высота : 360 пикселей
Соотношение сторон : 16:9
Частота кадров : 24,000 кадра/сек
Цветовое пространство : YUV
Субдискретизация насыщенности : 4:2:0
Битовая глубина : 8 бит
Тип развёртки : Прогрессивная
Метод сжатия : С потерями
Бит/(Пиксели*Кадры) : 0.127
Размер потока : 684 Мбайт (84%)
Библиотека кодирования : XviD 1.2.1 (UTC 2008-12-04)

Аудио
Идентификатор : 1
Формат : MPEG Audio
Версия формата : Version 1
Профиль формата : Layer 3
Настройки формата : Joint stereo / MS Stereo
Идентификатор кодека : 55
Идентификатор кодека/Подсказка : MP3
Продолжительность : 2 ч. 15 м.
Вид битрейта : Постоянный
Битрейт : 128 Кбит/сек
Каналы : 2 канала
Частота : 48,0 КГц
Частота кадров : 41,667 кадра/сек (1152 SPF)
Метод сжатия : С потерями
Размер потока : 124 Мбайт (15%)
Выравнивание : Соединение по промежуткам
Продолжительность промежутка : 42 мс. (1,00 видеокадр)
Время предзагрузки промежутка : 504 мс.
Библиотека кодирования : LAME3.99r
Настройки программы : -m j -V 4 -q 2 -lowpass 17 -b 128

kino.freetor.icu



Скачать Неадекватные люди 2 через торрент https://pic1.kartinco.top/images/12/kddef.jpg Скачать, смотреть онлайн Неадекватные люди 2 бесплантно в хорошем качестве Описание: Кристина живет с Виталием тихой семейной жизнью, но ее саркастический взгляд на мир не совпадает с идеалами Виталия. Пока она ... 9.7 10 7
Торрент: Зарегистрирован [2021-01-05 18:28] · скачан: 73 раз
Статус: √ проверено
Размер: 818 MB
Как cкачать? Как скачать Неадекватные люди 2 через торрент | UTorrent

% Раздел Тема Автор DL S | L
Наши новые фильмы 2020 - 2021 [ 1.46 GB ] Неадекватные люди 2 [2020 WEB-DLRip] bober100 Скачать
2 | 0
Наши новые фильмы 2020 - 2021 [ 2.55 GB ] Неадекватные люди 2 [2020 WEB-DLRip-AVC] bober100 Скачать
2 | 0
Наши фильмы (HD, WEB-DL 720p, 1080p) [ 4.23 GB ] Неадекватные люди 2 [2020 WEB-DL 720p] bober100 Скачать
5 | 0
Наши фильмы (HD, WEB-DL 720p, 1080p) [ 5.32 GB ] Неадекватные люди 2 [2020 WEB-DL 1080p] bober100 Скачать
2 | 0
Наши новые фильмы 2020 - 2021 [ 2.18 GB ] Неадекватные люди 2 [2020 WEB-DLRip] bober100 Скачать
3 | 0

28-11-2019 20:33  

Отключить всю рекламу на сайте

10-01-2021 06:13 Неадекватные люди 2 Скачать торрент  

Первый фильм намного интереснее.kino.freetor.icu



    Дорогой пользователь! Огромная просьба, поблагодарите релизера, оцените раздачу и оставьте свои комментарий, если Вы скачали Неадекватные люди 2 через торрент бесплатно!
    Комментировать посты могут только пользователи прошедшие не сложную регистрацию
    Показать сообщения:    

    Неадекватные люди 2 через торрент
    Скачать бесплатно Неадекватные люди 2
    Неадекватные люди 2 скачать торрент
    Неадекватные люди 2 смотреть онлайн
    Cкачать фильм Неадекватные люди 2 бесплатно
    Неадекватные люди 2 скачать торрент в хорошем качестве
    Неадекватные люди 2 смотреть онлайн бесплатно в хорошем качестве


    Вы не можете начинать темы
    Вы не можете отвечать на сообщения
    Вы не можете редактировать свои сообщения
    Вы не можете удалять свои сообщения
    Вы не можете голосовать в опросах
    Вы не можете прикреплять файлы к сообщениям
    Вы можете скачивать файлы