Anonymous, добрый день, присоединяйтесь к нам в Telegram!, здесь всегда актуальный адрес сайта, оперативная поддержка и многое другое!

>

5.6

iTunes

7.4

iTunes

7.9

MVO

1

7.7

1 сезон

6.8

iTunes

7.3

1 сезон

13

6.7

1 сезон

8.3

RePack

30

ULTIMATE

pack

9.9

Лицензия

ВАЖНО

ИГРА 18+

pack

7.3

RePack

MK11

7.7

RePack

jed

7.8

RePack

fifa19

8.5

RePack

RDR2

RePack

NEED FOR SPEED™ PAYBACK

4 сезон

9 сезон

Бесстыжие 9 сезон

Все сериалы

все сериалы на PB.wtf

RePack

FAR CRY 5

Anonymous, добрый день, мы катастрофически не успеваем собрать деньги на оплату серверов, помогите нам пожалуйста 5,10,15р., для нас важна любая помощь . В качестве благодарности мы отключим Вам всю рекламу на сайте (укажите свой ник в строку Ваше имя)!

×
  
Magnet ссылка

На острие (Эдуард Бордуков) [2020, Драма, спор, BDRip-AVC] [GER Transfer / Лицензия] kino.freetor.icu

На острие через торрент kino.freetor.icu

Размер: 2.05 GB | Добавлен: 7 мес. назад | Торрент скачан:24 раза
Смотреть онлайн На острие | Скачать    Ребята, помогите собрать деньги на оплату серверов!!!

09-01-2021 19:32 На острие Скачать торрент  

На острие
Год выпуска: 2020
Страна: Россия
Жанр: Драма, спорт
Продолжительность: 01:54:01
Перевод: Не требуется | Лицензия Blu-ray GER
Субтитры: Отсутствуют

Режиссер: Эдуард Бордуков

rating

В ролях: Светлана Ходченкова, Стася Милославская, Сергей Пускепалис, Алексей Барабаш, Евгений Сытый, Софья Эрнст, Хильда Кармен, Кирилл Дегтярь, Павел Колобков, Мария Киселева и др.

Описание: Лучшая саблистка мира, Александра Покровская, знаменита, богата и счастлива. Чтобы войти в историю, ей остается сделать последний шаг – взять олимпийское золото. Но путь ей преграждает девятнадцатилетняя Кира Егорова, девушка из провинции, в одночасье покорившая Москву. Кира побеждает на всех соревнованиях и не сходит с обложек глянцевых журналов. Ее цель – занять место Покровской. Начинается отчаянная схватка не только на турнирах, но и в жизни. Обе одержимы, и, кажется, остановить их не может ничто. Весь мир, затаив дыхание, наблюдает за сверканием острых клинков. И все очевиднее: эта яростная борьба уже зашла слишком далеко...

Качество: BDRip-AVC | GER Transfer
Формат: MKV

Видео: 1024x428 (2.40:1), 23.976 fps, MPEG-4 AVC, 2130 Кbps avg, 0.203 bit/pixel
Аудио: AC3, 48 kHz, 6 ch, ~448.00 kbps avg | русский | Blu-ray GER
скриншот  скриншот  скриншот  скриншот  скриншот  

x264 [info]: frame I:1601 Avg QP:14.84 size: 58015
x264 [info]: frame P:39595 Avg QP:18.17 size: 22213
x264 [info]: frame B:122820 Avg QP:19.48 size: 6891
x264 [info]: consecutive B-frames: 4.0% 4.4% 11.1% 19.5% 16.8% 35.2% 5.0% 1.4% 1.0% 0.8% 0.8%
*****************************************************************

Общее
Уникальный идентификатор : 127433091018151115993701900038089393114 (0x5FDEB878922FF821A8BEC0ADF9EAC3DA)
Полное имя : Na.ostrie.2020.GER.BDRip.2.05Gb.x264.MegaPeer.mkv
Формат : Matroska
Версия формата : Version 4
Размер файла : 2,05 Гбайт
Продолжительность : 1 ч. 54 м.
Общий поток : 2 577 Кбит/сек
Название фильма : На острие (2020) от MegaPeer
Дата кодирования : UTC 2021-03-20 15:25:58
Программа кодирования : mkvmerge v47.0.0 ('Black Flag') 64-bit
Библиотека кодирования : libebml v1.3.10 + libmatroska v1.5.2
Обложка : Yes
Attachments : cover.jpg

Видео
Идентификатор : 1
Формат : AVC
Формат/Информация : Advanced Video Codec
Профиль формата : High@L4.1
Настройки формата : CABAC / 11 Ref Frames
Параметр CABAC формата : Да
Параметр RefFrames формата : 11 кадров
Идентификатор кодека : V_MPEG4/ISO/AVC
Продолжительность : 1 ч. 54 м.
Битрейт : 2 130 Кбит/сек
Ширина : 1 024 пикселя
Высота : 428 пикселей
Соотношение сторон : 2,40:1
Режим частоты кадров : Постоянный
Частота кадров : 23,976 кадра/сек
Цветовое пространство : YUV
Субдискретизация насыщенности : 4:2:0
Битовая глубина : 8 бит
Тип развёртки : Прогрессивная
Бит/(Пиксели*Кадры) : 0.203
Размер потока : 1,69 Гбайт (83%)
Заголовок : stillet@MegaPeer
Библиотека кодирования : x264 core 161 r3018 db0d417
Настройки программы : cabac=1 / ref=11 / deblock=1:-2:-2 / analyse=0x3:0x113 / me=umh / subme=11 / psy=1 / psy_rd=1.00:0.00 / mixed_ref=1 / me_range=48 / chroma_me=1 / trellis=2 / 8x8dct=1 / cqm=0 / deadzone=21,11 / fast_pskip=0 / chroma_qp_offset=-2 / threads=13 / lookahead_threads=3 / sliced_threads=0 / nr=0 / decimate=0 / interlaced=0 / bluray_compat=0 / constrained_intra=0 / bframes=10 / b_pyramid=2 / b_adapt=2 / b_bias=0 / direct=3 / weightb=1 / open_gop=0 / weightp=2 / keyint=240 / keyint_min=24 / scenecut=40 / intra_refresh=0 / rc_lookahead=40 / rc=2pass / mbtree=0 / bitrate=2130 / ratetol=1.0 / qcomp=0.60 / qpmin=0 / qpmax=69 / qpstep=4 / cplxblur=20.0 / qblur=0.5 / vbv_maxrate=50000 / vbv_bufsize=62500 / nal_hrd=none / filler=0 / ip_ratio=1.40 / pb_ratio=1.30 / aq=1:1.10
Язык : English
Default : Да
Forced : Нет

Аудио
Идентификатор : 2
Формат : AC-3
Формат/Информация : Audio Coding 3
Коммерческое название : Dolby Digital
Идентификатор кодека : A_AC3
Продолжительность : 1 ч. 53 м.
Вид битрейта : Постоянный
Битрейт : 448 Кбит/сек
Каналы : 6 каналов
Channel layout : L R C LFE Ls Rs
Частота : 48,0 КГц
Частота кадров : 31,250 кадров/сек (1536 SPF)
Метод сжатия : С потерями
Размер потока : 365 Мбайт (17%)
Заголовок : Blu-ray GER
Язык : Russian
Service kind : Complete Main
Default : Да
Forced : Да

Меню
00:00:00.000 : :ger: 01
00:09:04.251 : :ger: 02
00:20:04.869 : :ger: 03
00:31:42.901 : :ger: 04
00:40:50.405 : :ger: 05
00:49:50.362 : :ger: 06
00:59:29.315 : :ger: 07
01:12:12.411 : :ger: 08
01:20:45.673 : :ger: 09
01:33:26.182 : :ger: 10
01:42:57.003 : :ger: 11
01:49:56.381 : :ger: 12
01:53:58.832 : :ger: 13

kino.freetor.icu



Скачать На острие через торрент https://i114.fastpic.ru/big/2021/0107/b8/c0710ee7fc114e2445599d2035b89cb8.jpg Скачать, смотреть онлайн На острие бесплантно в хорошем качестве Описание: Лучшая саблистка мира, Александра Покровская, знаменита, богата и счастлива. Чтобы войти в историю, ей остается сделать последний ... 10 10 11
Торрент: Зарегистрирован [2021-03-21 15:04] · скачан: 24 раз
Статус: √ проверено
Размер: 2.05 GB
Как cкачать? Как скачать На острие через торрент | UTorrent

% Раздел Тема Автор DL S | L
Зарубежные сериалы [ 97.04 GB ] Заточенные кепки / Острые козырьки / Peaky Blinders / Сезон: 1-5 / Серии: 1-30 из 30 [2013-2019 BDRip 1080p] + 2x[MVO] + [DVO] killermax2013 Скачать
4 | 2
T Релизы по Парсеру [Игры, Сериалы и Фильмы и другое...] [ 12.94 GB ] Заточенные кепки / Острые козырьки / Сезон: 1 -3 [2013-2016 HDRip от qqss44] LostFilm qqss44 (он и не он) Скачать
1 | 0
Зарубежные сериалы [ 24.53 GB ] Острые козырьки / Peaky Blinders / Сезон: 4 / Серии: 1-6 из 6 [2017 BDRip 1080p] [MVO] killermax2013 Скачать
1 | 0
Зарубежные сериалы [ 3.18 GB ] Заточенные кепки / Острые козырьки / Peaky Blinders / Сезон: 1 / Серии 1-6 из 6 [2013 WEB-DLRip] MVO [LostFilm] Anonymous Скачать
1 | 0
Зарубежные сериалы [ 5.45 GB ] Острые предметы / Sharp Objects / Сезон: 1 / Серии: 1-8 из 8 [2018 WEB-DLRip-AVC DEFLATE] многоголосый закадровый [AlexFilm] R.G.Generalfilm White Smoke Скачать
2 | 0
Наши фильмы (HD, WEB-DL 720p, 1080p) [ 2.57 GB ] Остров исправления [2017 WEB-DL 1080p] Скорпион1976 Скачать
1 | 0
Зарубежные сериалы [ 27.69 GB ] Острые предметы / Sharp Objects / Сезон: 1 / Серии: 1-7 из 8 [2018 WEB-DL 1080p] MVO [AlexFilm] bober100 Скачать
1 | 0


Последний раз редактировалось: bober100 (2021-03-21 15:05), всего редактировалось 2 раз(а)

28-11-2019 20:33  

Отключить всю рекламу на сайте

12-01-2021 18:30 На острие Скачать торрент  

Спасибо за релиз, фильм достойный, хорошая игра актеров.kino.freetor.icu



13-01-2021 13:20 На острие Скачать торрент  

Нормkino.freetor.icu



    Дорогой пользователь! Огромная просьба, поблагодарите релизера, оцените раздачу и оставьте свои комментарий, если Вы скачали На острие через торрент бесплатно!
    Комментировать посты могут только пользователи прошедшие не сложную регистрацию
    Показать сообщения:    

    На острие через торрент
    Скачать бесплатно На острие
    На острие скачать торрент
    На острие смотреть онлайн
    Cкачать фильм На острие бесплатно
    На острие скачать торрент в хорошем качестве
    На острие смотреть онлайн бесплатно в хорошем качестве


    Вы не можете начинать темы
    Вы не можете отвечать на сообщения
    Вы не можете редактировать свои сообщения
    Вы не можете удалять свои сообщения
    Вы не можете голосовать в опросах
    Вы не можете прикреплять файлы к сообщениям
    Вы можете скачивать файлы