Anonymous, доброй ночи, присоединяйтесь к нам в Telegram!, здесь всегда актуальный адрес сайта, оперативная поддержка и многое другое!

>

5.6

iTunes

7.4

iTunes

5.7

MVO

1

7.7

1 сезон

6.8

iTunes

7.3

1 сезон

13

6.7

1 сезон

8.3

RePack

30

ULTIMATE

pack

9.9

Лицензия

ВАЖНО

ИГРА 18+

pack

7.3

RePack

MK11

7.7

RePack

jed

7.8

RePack

fifa19

8.5

RePack

RDR2

RePack

NEED FOR SPEED™ PAYBACK

4 сезон

9 сезон

Бесстыжие 9 сезон

Все сериалы

все сериалы на PB.wtf

RePack

FAR CRY 5

Anonymous, доброй ночи, мы катастрофически не успеваем собрать деньги на оплату серверов, помогите нам пожалуйста 5,10,15р., для нас важна любая помощь . В качестве благодарности мы отключим Вам всю рекламу на сайте (укажите свой ник в строку Ваше имя)!

×
  
Magnet ссылка

Чёрный тюльпан / La tulipe noire (Кристиан-Жак) [1963, боевик, комедия, приключения, BDRip-HEVC 1080p] DUB + MVO kino.freetor.icu

Чёрный тюльпан через торрент kino.freetor.icu

Размер: 8.93 GB | Добавлен: 7 мес. назад | Торрент скачан:10 раз
Смотреть онлайн Чёрный тюльпан | Скачать    Ребята, помогите собрать деньги на оплату серверов!!!

01-03-2021 11:51 Чёрный тюльпан Скачать торрент  

Название: Чёрный тюльпан
Оригинальное название: La tulipe noire
Год производства: 1963
Премьера в мире: 28 февраля 1964
Жанр: боевик, комедия, приключения
Режиссер: Кристиан-Жак
В ролях: Ален Делон, Вирна Лизи, Адольфо Марсильяч, Доун Аддамс, Аким Тамирофф, Лаура Валенсуэла, Жорж Риго, Франсис Бланш, Хосе Хаспе, Перла Кристаль

О фильме: Накануне Французской революции в тихой провинции жуткий страх наводит на знатных мерзавцев таинственный разбойник в маске, чьим фирменным знаком стал чёрный тюльпан. Неуловимый мститель находчив, бесстрашен, благороден и умён, он прекрасный наездник и гений фехтования. Дворянин Жульен — беспечный неженка, глупый и трусливый — совсем на него не похож. Но никто не знает, что есть нечто, крепко связывающее этих двоих.



Страна: Франция, Италия, Испания
Студия: Ágata Films S.A., Flora Film S.r.l., Méditerranée Cinéma, Mizar Films
Продолжительность: 01:53:14
Перевод: дублированный, профессиональный многоголосый

Качество: BDRip-HEVC 1080p
Кодек: HEVC (x265)
Видео: 1920x856 (2.25:1), 10,0 Мбит/сек, HEVC (Main10@L.4.1@High) 10 бит
Звук:
Аудио1: AC3, 2 ch, 192 Kbps - Русский, Дублированный (Союзмультфильм + вставки MVO)
Аудио2: AC3, 6 ch, 448 Kbps - Русский, Многоголосый (R5)
Аудио3: AC3, 2 ch, 640 Kbps - French, Original
Субтитры: English full (SRT), French full (SRT)
Навигация по главам: Есть
x265 [info]: frame I: 681, Avg QP:17.69 kb/s: 32452.08
x265 [info]: frame P: 34918, Avg QP:19.37 kb/s: 22225.62
x265 [info]: frame B: 127457, Avg QP:20.89 kb/s: 6544.06
x265 [info]: Weighted P-Frames: Y:7.0% UV:5.7%
x265 [info]: Weighted B-Frames: Y:4.2% UV:3.3%
x265 [info]: consecutive B-frames: 1.0% 3.1% 4.6% 55.4% 9.3% 22.3% 1.6% 1.2% 0.5% 0.6% 0.2% 0.1%
x265 [info]: encoded 163056 frames in 125004.39s (1.30 fps), 10010.43 kb/s, Avg QP:20.55
Общее
Уникальный идентификатор : 153364394049716900201417941592922078108 (0x7360E86B7FECBCF9ACA693F062FF3B9C)
Полное имя : \\.\Чёрный.тюльпан.La.Tulipe.Noire.1963.FRA.Transfer.BDRip-HEVC.1080p.mkv
Формат : Matroska
Версия формата : Version 4
Размер файла : 8,93 Гбайт
Продолжительность : 1 ч. 53 м.
Общий поток : 11,3 Мбит/сек
Название фильма : Чёрный.тюльпан.La.Tulipe.Noire.1963.FRA.Transfer.BDRip-HEVC.1080p
Дата кодирования : UTC 2021-03-01 11:09:16
Программа кодирования : mkvmerge v53.0.0 ('Fool's Gold') 64-bit
Библиотека кодирования : libebml v1.4.1 + libmatroska v1.6.2

Видео
Идентификатор : 1
Формат : HEVC
Формат/Информация : High Efficiency Video Coding
Профиль формата : Main 10@L4.1@High
Идентификатор кодека : V_MPEGH/ISO/HEVC
Продолжительность : 1 ч. 53 м.
Битрейт : 10,0 Мбит/сек
Ширина : 1 920 пикселей
Высота : 856 пикселей
Соотношение сторон : 2,25:1
Режим частоты кадров : Постоянный
Частота кадров : 24,000 кадра/сек
Цветовое пространство : YUV
Субдискретизация насыщенности : 4:2:0
Битовая глубина : 10 бит
Бит/(Пиксели*Кадры) : 0.254
Размер потока : 7,92 Гбайт (89%)
Заголовок : La tulipe noire / Rip by OldGamer
Библиотека кодирования : x265 3.4+12-g9103319fc:[Windows][GCC 10.2.0][64 bit] 10bit
Настройки программы : cpuid=1111039 / frame-threads=3 / numa-pools=8 / wpp / no-pmode / no-pme / no-psnr / no-ssim / log-level=2 / input-csp=1 / input-res=1920x856 / interlace=0 / total-frames=163056 / level-idc=41 / high-tier=1 / uhd-bd=0 / ref=5 / no-allow-non-conformance / no-repeat-headers / annexb / no-aud / no-hrd / info / hash=0 / no-temporal-layers / open-gop / min-keyint=23 / keyint=240 / gop-lookahead=0 / bframes=11 / b-adapt=2 / b-pyramid / bframe-bias=0 / rc-lookahead=40 / lookahead-slices=0 / scenecut=40 / hist-scenecut=0 / radl=0 / no-splice / no-intra-refresh / ctu=32 / min-cu-size=8 / rect / amp / max-tu-size=32 / tu-inter-depth=4 / tu-intra-depth=4 / limit-tu=1 / rdoq-level=2 / dynamic-rd=0.00 / no-ssim-rd / signhide / no-tskip / nr-intra=0 / nr-inter=0 / no-constrained-intra / no-strong-intra-smoothing / max-merge=5 / limit-refs=3 / no-limit-modes / me=3 / subme=7 / merange=57 / temporal-mvp / no-frame-dup / no-hme / weightp / weightb / no-analyze-src-pics / deblock=-2:-1 / no-sao / no-sao-non-deblock / rd=6 / selective-sao=0 / no-early-skip / rskip / no-fast-intra / no-tskip-fast / no-cu-lossless / b-intra / no-splitrd-skip / rdpenalty=0 / psy-rd=2.50 / psy-rdoq=1.30 / no-rd-refine / no-lossless / cbqpoffs=0 / crqpoffs=0 / rc=crf / crf=19.4 / qcomp=0.60 / qpstep=4 / stats-write=0 / stats-read=0 / vbv-maxrate=50000 / vbv-bufsize=50000 / vbv-init=0.9 / crf-max=0.0 / crf-min=0.0 / ipratio=1.40 / pbratio=1.30 / aq-mode=1 / aq-strength=1.00 / no-cutree / zone-count=1 / zones: / start-frame=162891 / end-frame=163056 / qp=35 / no-strict-cbr / qg-size=32 / no-rc-grain / qpmax=69 / qpmin=0 / no-const-vbv / sar=1 / overscan=0 / videoformat=5 / range=0 / colorprim=2 / transfer=2 / colormatrix=2 / chromaloc=0 / display-window=0 / cll=0,0 / min-luma=0 / max-luma=1023 / log2-max-poc-lsb=8 / vui-timing-info / vui-hrd-info / slices=1 / no-opt-qp-pps / no-opt-ref-list-length-pps / no-multi-pass-opt-rps / scenecut-bias=0.00 / hist-threshold=0.01 / no-opt-cu-delta-qp / no-aq-motion / no-hdr10 / no-hdr10-opt / no-dhdr10-opt / no-idr-recovery-sei / analysis-reuse-level=0 / analysis-save-reuse-level=0 / analysis-load-reuse-level=0 / scale-factor=0 / refine-intra=0 / refine-inter=0 / refine-mv=1 / refine-ctu-distortion=0 / no-limit-sao / ctu-info=0 / no-lowpass-dct / refine-analysis-type=0 / copy-pic=1 / max-ausize-factor=1.0 / no-dynamic-refine / no-single-sei / no-hevc-aq / no-svt / no-field / qp-adaptation-range=1.00 / no-scenecut-aware-qpconformance-window-offsets / right=0 / bottom=0 / decoder-max-rate=0
Язык : French
Default : Да
Forced : Нет

Аудио #1
Идентификатор : 2
Формат : AC-3
Формат/Информация : Audio Coding 3
Коммерческое название : Dolby Digital
Идентификатор кодека : A_AC3
Продолжительность : 1 ч. 53 м.
Вид битрейта : Постоянный
Битрейт : 192 Кбит/сек
Каналы : 2 канала
Channel layout : L R
Частота : 48,0 КГц
Частота кадров : 31,250 кадров/сек (1536 SPF)
Метод сжатия : С потерями
Размер потока : 155 Мбайт (2%)
Заголовок : Dub (Союзмультфильм + вставки MVO)
Язык : Russian
Service kind : Complete Main
Default : Да
Forced : Нет

Аудио #2
Идентификатор : 3
Формат : AC-3
Формат/Информация : Audio Coding 3
Коммерческое название : Dolby Digital
Идентификатор кодека : A_AC3
Продолжительность : 1 ч. 53 м.
Вид битрейта : Постоянный
Битрейт : 448 Кбит/сек
Каналы : 6 каналов
Channel layout : L R C LFE Ls Rs
Частота : 48,0 КГц
Частота кадров : 31,250 кадров/сек (1536 SPF)
Метод сжатия : С потерями
Размер потока : 363 Мбайт (4%)
Заголовок : MVO (R5)
Язык : Russian
Service kind : Complete Main
Default : Нет
Forced : Нет

Аудио #3
Идентификатор : 4
Формат : AC-3
Формат/Информация : Audio Coding 3
Коммерческое название : Dolby Digital
Идентификатор кодека : A_AC3
Продолжительность : 1 ч. 53 м.
Вид битрейта : Постоянный
Битрейт : 640 Кбит/сек
Каналы : 2 канала
Channel layout : L R
Частота : 48,0 КГц
Частота кадров : 31,250 кадров/сек (1536 SPF)
Метод сжатия : С потерями
Размер потока : 518 Мбайт (6%)
Язык : French
Service kind : Complete Main
Default : Нет
Forced : Нет

Текст #1
Идентификатор : 5
Формат : UTF-8
Идентификатор кодека : S_TEXT/UTF8
Идентификатор кодека/Информация : UTF-8 Plain Text
Продолжительность : 1 ч. 52 м.
Битрейт : 61 бит/сек
Count of elements : 1309
Размер потока : 50,6 Кбайт (0%)
Заголовок : English
Язык : English
Default : Нет
Forced : Нет

Текст #2
Идентификатор : 6
Формат : UTF-8
Идентификатор кодека : S_TEXT/UTF8
Идентификатор кодека/Информация : UTF-8 Plain Text
Продолжительность : 1 ч. 53 м.
Битрейт : 65 бит/сек
Count of elements : 1442
Размер потока : 54,0 Кбайт (0%)
Заголовок : French
Язык : French
Default : Нет
Forced : Нет

Меню
00:00:00.000 : en:Chapter 00
00:11:02.000 : en:Chapter 01
00:22:55.625 : en:Chapter 02
00:29:55.583 : en:Chapter 03
00:39:12.500 : en:Chapter 04
00:48:38.750 : en:Chapter 05
00:55:47.125 : en:Chapter 06
01:05:50.541 : en:Chapter 07
01:15:51.083 : en:Chapter 08
01:24:32.916 : en:Chapter 09
01:34:16.750 : en:Chapter 10
01:43:36.208 : en:Chapter 11


Релиз от: OldGamer kino.freetor.icu



Скачать Чёрный тюльпан через торрент https://img11.lostpic.net/2021/03/01/5317301b86a0dac976cd9a48f8fadd21.jpg Скачать, смотреть онлайн Чёрный тюльпан бесплантно в хорошем качестве О фильме: Накануне Французской революции в тихой провинции жуткий страх наводит на знатных мерзавцев таинственный разбойник в маске, чьим ... 10 10 2
Торрент: Зарегистрирован [2021-03-01 11:51] · скачан: 10 раз
Статус: √ проверено
Размер: 8.93 GB
Как cкачать? Как скачать Чёрный тюльпан через торрент | UTorrent

% Раздел Тема Автор DL S | L
Классика зарубежного кино [ 14.32 GB ] Чёрный тюльпан / La tulipe noire [1964 BDRip 1080p by msltel] DUB MVO msltel Скачать
1 | 0
Классика зарубежного кино [ 4.93 GB ] Чёрный тюльпан / La tulipe noire [1964 BDRip 720p by msltel] DUB MVO msltel Скачать
1 | 0

28-11-2019 20:33  

Отключить всю рекламу на сайте

01-03-2021 15:59 Чёрный тюльпан Скачать торрент  

Топик был перенесен из форума Фильмы [HD 720p, 1080p] (Хороший звук DUB, MVO) в форум Классика зарубежного кино


bober100kino.freetor.icu



    Дорогой пользователь! Огромная просьба, поблагодарите релизера, оцените раздачу и оставьте свои комментарий, если Вы скачали Чёрный тюльпан через торрент бесплатно!
    Комментировать посты могут только пользователи прошедшие не сложную регистрацию
    Показать сообщения:    

    Чёрный тюльпан через торрент
    Скачать бесплатно Чёрный тюльпан
    Чёрный тюльпан скачать торрент
    Чёрный тюльпан смотреть онлайн
    Cкачать фильм Чёрный тюльпан бесплатно
    Чёрный тюльпан скачать торрент в хорошем качестве
    Чёрный тюльпан смотреть онлайн бесплатно в хорошем качестве


    Вы не можете начинать темы
    Вы не можете отвечать на сообщения
    Вы не можете редактировать свои сообщения
    Вы не можете удалять свои сообщения
    Вы не можете голосовать в опросах
    Вы не можете прикреплять файлы к сообщениям
    Вы можете скачивать файлы