Anonymous, доброе утро, присоединяйтесь к нам в Telegram!, здесь всегда актуальный адрес сайта, оперативная поддержка и многое другое!

>

5.5

iTunes

7.4

iTunes

7.9

iTunes

1

7.7

1 сезон

6.8

iTunes

7.3

1 сезон

13

6.7

1 сезон

8.3

RePack

30

ULTIMATE

pack

9.9

Лицензия

ВАЖНО

ИГРА 18+

pack

7.3

RePack

MK11

7.7

RePack

jed

7.8

RePack

fifa19

8.5

RePack

RDR2

RePack

NEED FOR SPEED™ PAYBACK

4 сезон

9 сезон

Бесстыжие 9 сезон

Все сериалы

все сериалы на PB.wtf

RePack

FAR CRY 5

Anonymous, доброе утро, мы катастрофически не успеваем собрать деньги на оплату серверов, помогите нам пожалуйста 5,10,15р., для нас важна любая помощь . В качестве благодарности мы отключим Вам всю рекламу на сайте (укажите свой ник в строку Ваше имя)!

×
  
Magnet ссылка

Последний богатырь: Корень зла (Дмитрий Дьяченко) [2020, Приключения, семейный, комедия, фэнтези, WEB-DLRip-AVC] [iTunes] kino.freetor.icu

Последний богатырь: Корень зла через торрент kino.freetor.icu

Раздают: 1 [ 0 KB/s ]
Размер: 2.68 GB | Добавлен: 7 мес. назад | Торрент скачан:214 раз
Смотреть онлайн Последний богатырь: Корень зла | Скачать    Ребята, помогите собрать деньги на оплату серверов!!!

10-03-2021 05:04 Последний богатырь: Корень зла Скачать торрент  

Последний богатырь: Корень зла
Год выпуска: 2020
Страна: Россия
Студия: Yellow, Black & White
Жанр: Приключения, семейный, комедия, фэнтези
Продолжительность: 02:01:00
Перевод: Не требуется | iTunes
Субтитры: отсутствуют

Режиссер: Дмитрий Дьяченко

rating

В ролях: Виктор Хориняк, Мила Сивацкая, Екатерина Вилкова, Елена Яковлева, Константин Лавроненко, Сергей Бурунов, Елена Валюшкина, Кирилл Зайцев, Тимофей Трибунцев, Гарик Харламов

Описание: Во второй части зрители узнают об истоках древнего зла, с которым героям пришлось столкнуться в первом фильме, увидят новые уголки сказочного Белогорья, и станут свидетелями захватывающих схваток с участием былинных богатырей.

Качество: WEB-DLRip-AVC
Формат: MKV

Видео: 1024x428 (2.40:1), 24 fps, MPEG-4 AVC, 2789 Кbps avg, 0.265 bit/pixel
Аудио: 48 kHz, AC3 Dolby Digital, 3/2 (L,C,R,l,r) + LFE ch, ~384 kbps
скриншот  скриншот  скриншот  скриншот  скриншот  

x264 [info]: frame I:1958 Avg QP:14.75 size: 77151
x264 [info]: frame P:47964 Avg QP:17.67 size: 26841
x264 [info]: frame B:124317 Avg QP:19.55 size: 8759
x264 [info]: consecutive B-frames: 3.9% 7.0% 8.4% 61.0% 6.6% 7.4% 2.3% 0.5% 0.5% 0.3% 1.5% 0.2% 0.5%
****************************************************

Общее
Уникальный идентификатор : 19508140806016632353794359154154070161 (0xEAD2199D8BB8D90556730681352E091)
Полное имя : Poslednij.Bogatyr.Koren.Zla.20120.WEB-DLRip.2.68Gb.x264.MegaPeer.mkv
Формат : Matroska
Версия формата : Version 4
Размер файла : 2,68 Гбайт
Продолжительность : 2 ч. 1 м.
Общий поток : 3 171 Кбит/сек
Название фильма : Последний богатырь: Корень зла (2020) от MegaPeer
Дата кодирования : UTC 2021-03-10 04:31:20
Программа кодирования : mkvmerge v47.0.0 ('Black Flag') 64-bit
Библиотека кодирования : libebml v1.3.10 + libmatroska v1.5.2
Обложка : Yes
Attachments : cover.jpg

Видео
Идентификатор : 1
Формат : AVC
Формат/Информация : Advanced Video Codec
Профиль формата : High@L4.1
Настройки формата : CABAC / 11 Ref Frames
Параметр CABAC формата : Да
Параметр RefFrames формата : 11 кадров
Идентификатор кодека : V_MPEG4/ISO/AVC
Продолжительность : 2 ч. 0 м.
Битрейт : 2 789 Кбит/сек
Ширина : 1 024 пикселя
Высота : 428 пикселей
Соотношение сторон : 2,40:1
Режим частоты кадров : Постоянный
Частота кадров : 24,000 кадра/сек
Цветовое пространство : YUV
Субдискретизация насыщенности : 4:2:0
Битовая глубина : 8 бит
Тип развёртки : Прогрессивная
Бит/(Пиксели*Кадры) : 0.265
Размер потока : 2,35 Гбайт (88%)
Заголовок : stillet@MegaPeer
Библиотека кодирования : x264 core 161 r3018 db0d417
Настройки программы : cabac=1 / ref=11 / deblock=1:-2:-2 / analyse=0x3:0x113 / me=umh / subme=11 / psy=1 / psy_rd=1.00:0.00 / mixed_ref=1 / me_range=48 / chroma_me=1 / trellis=2 / 8x8dct=1 / cqm=0 / deadzone=21,11 / fast_pskip=0 / chroma_qp_offset=-2 / threads=13 / lookahead_threads=3 / sliced_threads=0 / nr=0 / decimate=0 / interlaced=0 / bluray_compat=0 / constrained_intra=0 / bframes=12 / b_pyramid=2 / b_adapt=2 / b_bias=0 / direct=3 / weightb=1 / open_gop=0 / weightp=2 / keyint=240 / keyint_min=24 / scenecut=40 / intra_refresh=0 / rc_lookahead=40 / rc=2pass / mbtree=0 / bitrate=2789 / ratetol=1.0 / qcomp=0.60 / qpmin=0 / qpmax=69 / qpstep=4 / cplxblur=20.0 / qblur=0.5 / vbv_maxrate=50000 / vbv_bufsize=62500 / nal_hrd=none / filler=0 / ip_ratio=1.40 / pb_ratio=1.30 / aq=1:1.10
Язык : Russian
Default : Да
Forced : Нет

Аудио
Идентификатор : 2
Формат : AC-3
Формат/Информация : Audio Coding 3
Коммерческое название : Dolby Digital
Идентификатор кодека : A_AC3
Продолжительность : 2 ч. 1 м.
Вид битрейта : Постоянный
Битрейт : 384 Кбит/сек
Каналы : 6 каналов
Channel layout : L R C LFE Ls Rs
Частота : 48,0 КГц
Частота кадров : 31,250 кадров/сек (1536 SPF)
Метод сжатия : С потерями
Размер потока : 332 Мбайт (12%)
Заголовок : iTunes
Язык : Russian
Service kind : Complete Main
Default : Да
Forced : Нет

Меню
00:00:00.000 : en:Глава 1
00:09:15.041 : en:Глава 2
00:17:19.791 : en:Глава 3
00:22:25.916 : en:Глава 4
00:29:14.206 : en:Глава 5
00:37:49.996 : en:Глава 6
00:43:03.246 : en:Глава 7
00:49:46.537 : en:Глава 8
00:55:22.495 : en:Глава 9
01:06:05.995 : en:Глава 10
01:14:26.827 : en:Глава 11
01:20:51.868 : en:Глава 12
01:26:51.200 : en:Глава 13
01:40:16.616 : en:Глава 14
01:49:23.157 : en:Глава 15
02:00:59.990 : en:Глава 1

kino.freetor.icu



Скачать Последний богатырь: Корень зла через торрент https://i114.fastpic.ru/big/2021/0303/4c/d6be8e8179140e064277c561d0e96d4c.jpg Скачать, смотреть онлайн Последний богатырь: Корень зла бесплантно в хорошем качестве Описание: Во второй части зрители узнают об истоках древнего зла, с которым героям пришлось столкнуться в первом фильме, увидят новые ... 10 10 4
Торрент: Зарегистрирован [2021-03-10 05:04] · скачан: 214 раз
Статус: √ проверено
Размер: 2.68 GB
Как cкачать? Как скачать Последний богатырь: Корень зла через торрент | UTorrent

% Раздел Тема Автор DL S | L
Наши фильмы (HD, WEB-DL 720p, 1080p) [ 4.21 GB ] Последний богатырь: Корень зла [2020 WEB-DL 1080p] bober100 Скачать
12 | 0
T Наши фильмы (HD, WEB-DL 720p, 1080p) [ 3.12 GB ] Последний богатырь: Корень зла [2020 WEBRip 720p] killermax2013 Скачать
8 | 0
Наши новые фильмы 2020 - 2021 [ 2.18 GB ] Последний богатырь: Корень зла [2020 WEB-DLRip] bober100 Скачать
11 | 0
Наши новые фильмы 2020 - 2021 [ 1.46 GB ] Последний богатырь: Корень зла [2020 WEB-DLRip] bober100 Скачать
11 | 0
Саундтреки [ 154 MB ] OST - Последний богатырь: Корень зла / MP3 / 320 kbps / Score bober100 Скачать
1 | 0

28-11-2019 20:33  

Отключить всю рекламу на сайте

    Дорогой пользователь! Огромная просьба, поблагодарите релизера, оцените раздачу и оставьте свои комментарий, если Вы скачали Последний богатырь: Корень зла через торрент бесплатно!
    Комментировать посты могут только пользователи прошедшие не сложную регистрацию
    Показать сообщения:    

    Последний богатырь: Корень зла через торрент
    Скачать бесплатно Последний богатырь: Корень зла
    Последний богатырь: Корень зла скачать торрент
    Последний богатырь: Корень зла смотреть онлайн
    Cкачать фильм Последний богатырь: Корень зла бесплатно
    Последний богатырь: Корень зла скачать торрент в хорошем качестве
    Последний богатырь: Корень зла смотреть онлайн бесплатно в хорошем качестве


    Вы не можете начинать темы
    Вы не можете отвечать на сообщения
    Вы не можете редактировать свои сообщения
    Вы не можете удалять свои сообщения
    Вы не можете голосовать в опросах
    Вы не можете прикреплять файлы к сообщениям
    Вы можете скачивать файлы