1 сезон

3 сезон

iTunes

1

iTunes

DUB Netflix

iTunes

13

1 сезон

RePack

30

Deluxe

pack

Легкие деньги

ВАЖНО

ИГРА 18+

pack

RePack

MK11

RePack

jed

RePack

fifa19

RePack

RDR2

RePack

NEED FOR SPEED™ PAYBACK

4 сезон

9 сезон

Бесстыжие 9 сезон

Все сериалы

все сериалы на PB.wtf

RePack

FAR CRY 5

Anonymous, добрый день, мы не успеваем до 1 числа собрать деньги на оплату серверов, помогите нам пожалуйста в это трудное время. В качестве благодарности мы отключим Вам всю рекламу на сайте (укажите свой ник в строку Ваше имя)!

×
  
Magnet ссылка

Вампиры средней полосы / Сезон: 1 / Серии: 1-8 из 8 (Антон Маслов) [2021, Детектив, комедия, фэнтези, WEB-DLRip] kino.freetor.icu

Вампиры средней полосы через торрент kino.freetor.icu

Раздают: 17 [ 125 KB/s ] Качают: 1 [ 0 KB/s ]
Размер: 5.61 GB | Добавлен: 1 мес. 5 д. назад | Торрент скачан:231 раз
Скачать  

24-03-2021 05:39 Вампиры средней полосы Скачать торрент  

Вампиры средней полосы
Год выпуска: 2021
Страна: Россия
Студия: START Studio
Жанр: Детектив, комедия, фэнтези
Продолжительность: ~ 00:55:00 серия
Перевод: Не требуется
Субтитры: отсутствуют

Режиссер: Антон Маслов



В ролях: Юрий Стоянов, Татьяна Догилева, Екатерина Кузнецова (II), Артём Ткаченко, Ольга Медынич, Михаил Гаврилов-Третьяков, Дмитрий Чеботарёв, Глеб Калюжный, Дмитрий Лысенков, Александр Устюгов, Александр Никольский, Маргарита Шилова, Виталия Корниенко, Вероника Лысакова, Алёна Фалалеева, Дмитрий Архангельский, Владислав Миллер, Владимир Брест, Мария Букнис, Владимир Котов (IV), Роман Максимов, Владимир Гарцунов, Максим Дромашко, Андрей Дроздов, Андрей Юртаев, Ян Решетников, Александр Недорезов, Артём Анашкин, Александр Сибирцев (II), Сергей Радуто, Александр Волков (II)

Описание: Смоленск — среднестатистический город, расположенный в средней полосе России. Лишь одно отличает Смоленск от любого другого провинциального города средней полосы — в Смоленске живут вампиры. Живут давно. Живут тихо. Живут по закону. Живут непримечательной жизнью обычной провинциальной семьи и вовсе не убивают людей. Хотя кровь, конечно, попивают. И вот когда в березовой роще под Смоленском находят обескровленных парней... Их мирная жизнь оказывается под угрозой. Возглавляет вампирскую «ячейку общества» самый старый вампир, дед Слава, он же Святослав Вернидубович, а следят за соблюдением вампирско-мирских законов «хранители» во главе с суровой Ириной Витальевной.

Качество: WEB-DLRip
Формат: AVI

Видео: XviD, ~ 1600 Кбит/с, 720x304, 25 кадр/с
Аудио: 48.0 kHz, AC3 Dolby Digital, 2/0 (L,R) ch, ~ 192 kbps
скриншот  скриншот  скриншот  скриншот  скриншот  

General
Complete name : H:\fiiles x\Вампиры средней полосы .2021.WEB-DLRip.Files-x\02. Вампиры средней полосы .2021.WEB-DLRip.Files-x.avi
Format : AVI
Format/Info : Audio Video Interleave
File size : 656 MiB
Duration : 50mn 53s
Overall bit rate : 1 802 Kbps
Writing application : VirtualDubMod 1.5.10.3 | www.virtualdub-fr.org || (build 2550/release)
Writing library : VirtualDubMod build 2550/release

Video
ID : 0
Format : MPEG-4 Visual
Format profile : Advanced [email protected]
Format settings, BVOP : 1
Format settings, QPel : No
Format settings, GMC : No warppoints
Format settings, Matrix : Custom
Codec ID : XVID
Codec ID/Hint : XviD
Duration : 50mn 53s
Bit rate : 1 600 Kbps
Width : 720 pixels
Height : 304 pixels
Display aspect ratio : 2.35:1
Frame rate : 25.000 fps
Color space : YUV
Chroma subsampling : 4:2:0
Bit depth : 8 bits
Scan type : Progressive
Compression mode : Lossy
Bits/(Pixel*Frame) : 0.292
Stream size : 582 MiB (89%)
Writing library : XviD 73

Audio
ID : 1
Format : AC-3
Format/Info : Audio Coding 3
Mode extension : CM (complete main)
Codec ID : 2000
Duration : 50mn 53s
Bit rate mode : Constant
Bit rate : 192 Kbps
Channel(s) : 2 channels
Channel positions : Front: L R
Sampling rate : 48.0 KHz
Bit depth : 16 bits
Compression mode : Lossy
Stream size : 69.9 MiB (11%)
Alignment : Split accross interleaves
Interleave, duration : 40 ms (1.00 video frame)
Interleave, preload duration : 500 ms

Когда раздача ведётся путём добавления новых серий, при каждом добавлении создётся новый торрент. Чтобы начать докачку новой серии, пользователям необходимо сделать следующее:
(1) остановить скачивание,
(2) удалить старый торрент у себя из клиента (старые серии удалять не надо),
(3) скачать новый торрент и запустить его у себя в клиенте вместо старого, при этом указать клиенту путь в старую папку, куда и должно происходить скачивание новых серий.
Ваш клиент при этом должен произвести хеширование (проверку) старой папки (если не производит сам - помогите ему сделать это), и будет докачивать только те серии, которых у вас ещё нет. Старые серии при этом не удаляются, а продолжают раздаваться!
Eсли вы уже удалили старые серии, то предотвратить повторную закачку старых серий можно, отжав галочку в соответсвующих местах при запуске нового торрента. По возможности, желательно не удалять старые серии как можно дольше, чтобы релизёр не столько продолжал раздавать старые серии, а смог сконцентрироваться на новых.

kino.freetor.icu



Скачать Вампиры средней полосы через торрент https://c.radikal.ru/c10/2103/3c/5ec902503253.jpg Скачать фильм Вампиры средней полосы через торрент бесплантно в хорошем качестве Описание: Смоленск — среднестатистический город, расположенный в средней полосе России. Лишь одно отличает Смоленск от любого другого ... 9.3 10 24
Торрент: Зарегистрирован [2021-05-06 23:42] · скачан: 231 раз
Статус: √ проверено
Размер: 5.61 GB
Как cкачать? Как скачать Вампиры средней полосы через торрент | UTorrent

% Раздел Тема Автор DL S | L
Наши сериалы [ 16.26 GB ] Вампиры средней полосы / Сезон: 1 / Серии: 1-8 из 8 [2021 WEB-DL 1080p] bober100 Скачать
25 | 9
Наши сериалы [ 10.82 GB ] Вампиры средней полосы / Сезон: 1 / Серии: 1-8 из 8 [2021 WEB-DL 720p] bober100 Скачать
11 | 2
Наши сериалы [ 5.57 GB ] Вампиры средней полосы / Сезон: 1 / Серии: 1-8 из 8 [2021 WEB-DLRip-AVC] bober100 Скачать
5 | 1


Последний раз редактировалось: bober100 (2021-05-07 03:12), всего редактировалось 1 раз

28-11-2019 20:33  

Отключить всю рекламу на сайте

16-04-2021 05:12 Вампиры средней полосы Скачать торрент  

Сериал сделан на довольно высоком уровне. Для нашего кино довольно неожидано. Спасибо за раздачу.kino.freetor.icu



25-04-2021 08:36 Вампиры средней полосы Скачать торрент  

Хороший сериал!kino.freetor.icu



    Дорогой пользователь! Огромная просьба, поблагодарите релизера, оцените раздачу и оставьте свои комментарий, если Вы скачали Вампиры средней полосы через торрент бесплатно! Внесите свою лепту в развитие PiratBit!
    Комментировать посты могут только пользователи прошедшие не сложную регистрацию
    Показать сообщения:    

    Вампиры средней полосы через торрент
    Скачать бесплатно Вампиры средней полосы
    Вампиры средней полосы скачать торрент
    Вампиры средней полосы смотреть онлайн
    Cкачать фильм Вампиры средней полосы бесплатно
    Вампиры средней полосы скачать торрент в хорошем качестве
    Вампиры средней полосы смотреть онлайн бесплатно в хорошем качестве


    Вы не можете начинать темы
    Вы не можете отвечать на сообщения
    Вы не можете редактировать свои сообщения
    Вы не можете удалять свои сообщения
    Вы не можете голосовать в опросах
    Вы не можете прикреплять файлы к сообщениям
    Вы можете скачивать файлы