Anonymous, добрый день, присоединяйтесь к нам в Telegram!, здесь всегда актуальный адрес сайта, оперативная поддержка и многое другое!

>

5.6

iTunes

7.4

iTunes

7.9

MVO

1

7.7

1 сезон

6.8

iTunes

7.3

1 сезон

13

6.7

1 сезон

8.3

RePack

30

ULTIMATE

pack

9.9

Лицензия

ВАЖНО

ИГРА 18+

pack

7.3

RePack

MK11

7.7

RePack

jed

7.8

RePack

fifa19

8.5

RePack

RDR2

RePack

NEED FOR SPEED™ PAYBACK

4 сезон

9 сезон

Бесстыжие 9 сезон

Все сериалы

все сериалы на PB.wtf

RePack

FAR CRY 5

Anonymous, добрый день, мы катастрофически не успеваем собрать деньги на оплату серверов, помогите нам пожалуйста 5,10,15р., для нас важна любая помощь . В качестве благодарности мы отключим Вам всю рекламу на сайте (укажите свой ник в строку Ваше имя)!

×
  
Magnet ссылка

Родные (Илья Аксенов) [2021, комедия, драма, WEB-DLRip-AVC] [iTunes] kino.freetor.icu

Родные через торрент kino.freetor.icu

Раздают: 40 [ 148 KB/s ]
Размер: 1.44 GB | Добавлен: 6 мес. назад | Торрент скачан:616 раз
Смотреть онлайн Родные | Скачать    Ребята, помогите собрать деньги на оплату серверов!!!

10-04-2021 11:02 Родные Скачать торрент  

Родные

«Будем праздновать жизнь!»

Страна: Россия
Жанр: комедия, драма
Год выпуска: 2021
Продолжительность: 01:37:55

Перевод: Не требуется
Субтитры: нет
Оригинальная аудиодорожка: русский

Режиссер: Илья Аксенов

В ролях: Сергей Бурунов, Ирина Пегова, Семен Трескунов, Монеточка, Катерина Беккер, Анна Уколова, Никита Павленко, Сергей Шакуров, Павел Ворожцов, Дмитрий Русаков

Описание: Однажды утром отец семейства решает исполнить мечту всей жизни: отправиться с родными на Грушинский фестиваль и выступить там со своей песней. Семья вынуждена смириться с желанием отца-самодура и пуститься в автопутешествие через всю Россию.
В пути их ждут приключения, различные испытания, проверка отношений на прочность и важная встреча, которую отец ждал двадцать лет.



Релиз:

Автор рипа: stalkerok

Сэмпл

Качество видео: WEB-DLRip-AVC | Исходник: Rodnie.2021.1080p.WEB-DL.DD5.1.H.264-EniaHD (thx karvai)
Формат видео: MKV
Видео кодек: AVC
Аудио кодек: AC3
Видео: AVC, 1722 Кбит/сек, 1046x438 (2.40:1), 24 кадр/сек
Аудио: AC3, 384 Кбит/сек, 48 КГц, 5.1 - русский | iTunes
---[Information] [20.04.2021 16:43:22] x264 [info]: frame I:1156 Avg QP:17.48 size: 63796
---[Information] [20.04.2021 16:43:22] x264 [info]: frame P:30923 Avg QP:19.30 size: 20629
---[Information] [20.04.2021 16:43:22] x264 [info]: frame B:108945 Avg QP:21.83 size: 5079
---[Information] [20.04.2021 16:43:22] x264 [info]: consecutive B-frames: 2.5% 2.6% 11.5% 15.4% 8.3% 54.7% 1.7% 0.1% 0.3% 0.1% 1.1% 1.1% 0.1% 0.0% 0.5%

General
Unique ID : 95146828060808827672318452267404563203 (0x47949CCE9B7972C937EBA50981F11303)
Complete name : J:\Rodnie.2021\Rodnie.2021.WEB-DLRip.x264.Rus.stalkerok.New-Team.mkv
Format : Matroska
Format version : Version 4
File size : 1.44 GiB
Duration : 1 h 37 min
Overall bit rate : 2 108 kb/s
Movie name : Родные (2021) | Rip by stalkerok
Encoded date : UTC 2021-04-20 14:07:18
Writing application : mkvmerge v56.1.0 ('My Friend') 64-bit
Writing library : libebml v1.4.2 + libmatroska v1.6.4

Video
ID : 1
Format : AVC
Format/Info : Advanced Video Codec
Format profile : High@L4.1
Format settings : CABAC / 12 Ref Frames
Format settings, CABAC : Yes
Format settings, Reference frames : 12 frames
Codec ID : V_MPEG4/ISO/AVC
Duration : 1 h 37 min
Bit rate : 1 722 kb/s
Width : 1 046 pixels
Height : 438 pixels
Display aspect ratio : 2.40:1
Frame rate mode : Constant
Frame rate : 24.000 FPS
Color space : YUV
Chroma subsampling : 4:2:0
Bit depth : 8 bits
Scan type : Progressive
Bits/(Pixel*Frame) : 0.157
Stream size : 1.18 GiB (82%)
Title : Rip by stalkerok
Writing library : x264 core 161 r3043+53M 5ab00ad t_mod_New [(8 & 10)-bit@all X86_64]
Encoding settings : cabac=1 / ref=12 / deblock=1:-3:-2 / analyse=0x3:0x133 / me=umh / subme=10 / psy=1 / fade_compensate=0.00 / psy_rd=1.00:0.00 / mixed_ref=1 / me_range=32 / chroma_me=1 / trellis=2 / 8x8dct=1 / cqm=0 / deadzone=21,11 / fast_pskip=0 / chroma_qp_offset=-2 / threads=12 / lookahead_threads=3 / sliced_threads=0 / nr=0 / decimate=1 / interlaced=0 / bluray_compat=0 / constrained_intra=0 / fgo=0 / bframes=14 / b_pyramid=2 / b_adapt=2 / b_bias=0 / direct=3 / weightb=1 / open_gop=0 / weightp=2 / keyint=240 / keyint_min=23 / scenecut=40 / intra_refresh=0 / rc_lookahead=60 / rc=crf / mbtree=0 / crf=18.6000 / qcomp=0.65 / qpmin=0:0:0 / qpmax=69:69:69 / qpstep=4 / vbv_maxrate=50000 / vbv_bufsize=62500 / crf_max=0.0 / nal_hrd=none / filler=0 / ip_ratio=1.40 / pb_ratio=1.30 / aq=3:0.90 / aq-sensitivity=10.00 / aq-factor=1.00:1.00:1.00 / aq2=0 / aq3=0
Default : Yes
Forced : No

Audio
ID : 2
Format : AC-3
Format/Info : Audio Coding 3
Commercial name : Dolby Digital
Codec ID : A_AC3
Duration : 1 h 37 min
Bit rate mode : Constant
Bit rate : 384 kb/s
Channel(s) : 6 channels
Channel layout : L R C LFE Ls Rs
Sampling rate : 48.0 kHz
Frame rate : 31.250 FPS (1536 SPF)
Compression mode : Lossy
Stream size : 269 MiB (18%)
Language : Russian
Service kind : Complete Main
Default : Yes
Forced : No

Menu
00:00:00.000 : Глава 1
00:08:11.946 : Глава 2
00:16:13.821 : Глава 3
00:24:18.737 : Глава 4
00:32:24.987 : Глава 5
00:40:41.403 : Глава 6
00:49:31.653 : Глава 7
00:58:33.361 : Глава 8
01:07:32.319 : Глава 9
01:16:19.610 : Глава 10
01:24:30.110 : Глава 11
kino.freetor.icu



Скачать Родные через торрент http://i6.imageban.ru/out/2017/09/18/2ff75c0c358795c5946784cc1680714d.png Скачать, смотреть онлайн Родные бесплантно в хорошем качестве Описание: Однажды утром отец семейства решает исполнить мечту всей жизни: отправиться с родными на Грушинский фестиваль и выступить там со ... 9.2 10 22
Info! Золотая раздача, скачанное не засчитывается.
Торрент: Зарегистрирован [2021-04-20 14:27] · скачан: 616 раз
Статус: √ проверено
Размер: 1.44 GB
Как cкачать? Как скачать Родные через торрент | UTorrent

% Раздел Тема Автор DL S | L
Иностранные мультфильмы [ 1.46 GB ] Человек-паук: Через вселенные / Spider-Man: Into the Spider-Verse [2018 мультфильм BDRip] - [] [Локализованная версия] Twi7ter Скачать
8 | 0
Короткометражные мультфильмы [ 2.16 GB ] Русские народные сказки [1949-1984 СССР мультфильм короткометражка DVDRip от AVP Studio] AVP Studio Скачать
1 | 0
Иностранные мультфильмы [ 747 MB ] Человек-паук: Через вселенные / Spider-Man: Into the Spider-Verse [2018 мультфильм HDRip] Skandar2019 Скачать
1 | 0
Отечественная Поп музыка (mp3) [ 103 MB ] Катя Бужинская - Нежный родной 2018 / MP3 / 320 kbps / Поп bober100 Скачать
1 | 0
Фильмы с украинским озвучиванием [ 1.45 GB ] Благородные бродяги / Шляхетні волоцюги / Noble tramps [2018 музыка WEB-DLRip] [UKR] - ExKinoRay Enigma2010 Скачать
1 | 0
Наши сериалы [ 10.25 GB ] Родная кровь / Серии: 1-4 из 4 [2018 Мело HDTV 1080i] bober100 Скачать
1 | 0
Наши фильмы (HD, WEB-DL 720p, 1080p) [ 3.06 GB ] СуперБобровы. Народные мстители [2018 WEB-DL 1080p] bober100 Скачать
4 | 2


Последний раз редактировалось: sokol_ok (2021-04-20 14:27), всего редактировалось 1 раз

28-11-2019 20:33  

Отключить всю рекламу на сайте

10-04-2021 15:22 Родные Скачать торрент  

Посмотрел. Комедии не увидел. Даже не улыбнулся. Раздающему спасибо. Сам фильм не понравился. Обычная драма.kino.freetor.icu



20-04-2021 14:28 Родные Скачать торрент  

Замена на рип с лучшего исходника. Семпл, скриншоты и техданные обновлены.kino.freetor.icu



20-04-2021 17:10 Родные Скачать торрент  

бред.kino.freetor.icu



    Дорогой пользователь! Огромная просьба, поблагодарите релизера, оцените раздачу и оставьте свои комментарий, если Вы скачали Родные через торрент бесплатно!
    Комментировать посты могут только пользователи прошедшие не сложную регистрацию
    Показать сообщения:    

    Родные через торрент
    Скачать бесплатно Родные
    Родные скачать торрент
    Родные смотреть онлайн
    Cкачать фильм Родные бесплатно
    Родные скачать торрент в хорошем качестве
    Родные смотреть онлайн бесплатно в хорошем качестве


    Вы не можете начинать темы
    Вы не можете отвечать на сообщения
    Вы не можете редактировать свои сообщения
    Вы не можете удалять свои сообщения
    Вы не можете голосовать в опросах
    Вы не можете прикреплять файлы к сообщениям
    Вы можете скачивать файлы