Anonymous, доброй ночи, присоединяйтесь к нам в Telegram!, здесь всегда актуальный адрес сайта, оперативная поддержка и многое другое!

>

5.6

iTunes

7.4

iTunes

5.7

MVO

1

7.7

1 сезон

6.8

iTunes

7.3

1 сезон

13

6.7

1 сезон

8.3

RePack

30

ULTIMATE

pack

9.9

Лицензия

ВАЖНО

ИГРА 18+

pack

7.3

RePack

MK11

7.7

RePack

jed

7.8

RePack

fifa19

8.5

RePack

RDR2

RePack

NEED FOR SPEED™ PAYBACK

4 сезон

9 сезон

Бесстыжие 9 сезон

Все сериалы

все сериалы на PB.wtf

RePack

FAR CRY 5

Anonymous, доброй ночи, мы катастрофически не успеваем собрать деньги на оплату серверов, помогите нам пожалуйста 5,10,15р., для нас важна любая помощь . В качестве благодарности мы отключим Вам всю рекламу на сайте (укажите свой ник в строку Ваше имя)!

×
  
Magnet ссылка

Доктор Лиза (Оксана Карас) [2020, драма, биография, WEB-DLRip-AVC] kino.freetor.icu

Доктор Лиза через торрент kino.freetor.icu

Раздают: 8 [ 0 KB/s ]
Размер: 1.48 GB | Добавлен: 6 мес. назад | Торрент скачан:115 раз
Смотреть онлайн Доктор Лиза | Скачать    Ребята, помогите собрать деньги на оплату серверов!!!

12-04-2021 15:03 Доктор Лиза Скачать торрент  

Доктор Лиза

«Один день, чтобы спасти всех»

Страна: Россия
Жанр: драма, биография
Год выпуска: 2020
Продолжительность: 01:59:58

Перевод: Не требуется
Субтитры: нет
Оригинальная аудиодорожка: русский

Режиссер: Оксана Карас

В ролях: Чулпан Хаматова, Анджей Хыра, Константин Хабенский, Андрей Бурковский, Евгений Писарев, Алексей Агранович, Сергей Сосновский, Татьяна Догилева, Елена Коренева, Тимофей Трибунцев

Описание: Один день из жизни Елизаветы Глинки — филантропа и основательницы фонда «Справедливая помощь». Еще утром она планировала провести его с семьей, отмечая 30-летие свадьбы, но даже сегодня не может отключить телефон. Доктор Лиза должна ехать на вокзал, чтобы накормить бездомных, и к знакомому врачу Шевкунову, чтобы попросить морфин для умирающей девочки. Все это время за ней следят правоохранительные органы, которые давно интересуются этой чрезвычайно энергичной благотворительницей.



Релиз:

Автор рипа: stalkerok

Сэмпл

Качество видео: WEB-DLRip-AVC | Исходник: Doktor.Liza.2020.1080p.WEB-DL.DD5.1.H.264-EniaHD (thx karvai)
Формат видео: MKV
Видео кодек: AVC
Аудио кодек: AC3
Видео: AVC, 1384 Кбит/сек, 1010x424 (2.40:1), 24 кадр/сек
Аудио: AC3, 384 Кбит/сек, 48 КГц, 5.1 - русский | iTunes
Навигация по главам: есть
---[Information] [12.04.2021 17:24:02] x264 [info]: frame I:1155 Avg QP:16.68 size: 47935
---[Information] [12.04.2021 17:24:02] x264 [info]: frame P:38146 Avg QP:18.75 size: 16105
---[Information] [12.04.2021 17:24:02] x264 [info]: frame B:133469 Avg QP:21.85 size: 4317
---[Information] [12.04.2021 17:24:02] x264 [info]: consecutive B-frames: 2.1% 3.4% 11.0% 14.2% 9.2% 58.1% 1.1% 0.2% 0.1% 0.1% 0.1% 0.1% 0.0% 0.1% 0.3%

General
Unique ID : 146882537695595484350355936215668201785 (0x6E808C3A5D01D9CAC6BCBF6D3DD19939)
Complete name : J:\Doktor.Liza.2020\Doktor.Liza.2020.WEB-DLRip.x264.Rus.stalkerok.New-Team.mkv
Format : Matroska
Format version : Version 4
File size : 1.48 GiB
Duration : 1 h 59 min
Overall bit rate : 1 770 kb/s
Movie name : Доктор Лиза (2020) | Rip by stalkerok
Encoded date : UTC 2021-04-12 14:29:50
Writing application : mkvmerge v56.1.0 ('My Friend') 64-bit
Writing library : libebml v1.4.2 + libmatroska v1.6.4

Video
ID : 1
Format : AVC
Format/Info : Advanced Video Codec
Format profile : High@L4.1
Format settings : CABAC / 12 Ref Frames
Format settings, CABAC : Yes
Format settings, Reference frames : 12 frames
Codec ID : V_MPEG4/ISO/AVC
Duration : 1 h 59 min
Bit rate : 1 385 kb/s
Width : 1 010 pixels
Height : 424 pixels
Display aspect ratio : 2.40:1
Frame rate mode : Constant
Frame rate : 24.000 FPS
Color space : YUV
Chroma subsampling : 4:2:0
Bit depth : 8 bits
Scan type : Progressive
Bits/(Pixel*Frame) : 0.135
Stream size : 1.16 GiB (78%)
Title : Rip by stalkerok
Writing library : x264 core 161 r3043+53M 5ab00ad t_mod_New [(8 & 10)-bit@all X86_64]
Encoding settings : cabac=1 / ref=12 / deblock=1:-3:-2 / analyse=0x3:0x133 / me=umh / subme=10 / psy=1 / fade_compensate=0.00 / psy_rd=1.00:0.00 / mixed_ref=1 / me_range=32 / chroma_me=1 / trellis=2 / 8x8dct=1 / cqm=0 / deadzone=21,11 / fast_pskip=0 / chroma_qp_offset=-2 / threads=12 / lookahead_threads=3 / sliced_threads=0 / nr=0 / decimate=1 / interlaced=0 / bluray_compat=0 / constrained_intra=0 / fgo=0 / bframes=14 / b_pyramid=2 / b_adapt=2 / b_bias=0 / direct=3 / weightb=1 / open_gop=0 / weightp=2 / keyint=240 / keyint_min=23 / scenecut=40 / intra_refresh=0 / rc_lookahead=60 / rc=crf / mbtree=0 / crf=18.9000 / qcomp=0.65 / qpmin=0:0:0 / qpmax=69:69:69 / qpstep=4 / vbv_maxrate=50000 / vbv_bufsize=62500 / crf_max=0.0 / nal_hrd=none / filler=0 / ip_ratio=1.40 / pb_ratio=1.30 / aq=3:0.80 / aq-sensitivity=10.00 / aq-factor=1.00:1.00:1.00 / aq2=0 / aq3=0
Default : Yes
Forced : No

Audio
ID : 2
Format : AC-3
Format/Info : Audio Coding 3
Commercial name : Dolby Digital
Codec ID : A_AC3
Duration : 1 h 59 min
Bit rate mode : Constant
Bit rate : 384 kb/s
Channel(s) : 6 channels
Channel layout : L R C LFE Ls Rs
Sampling rate : 48.0 kHz
Frame rate : 31.250 FPS (1536 SPF)
Compression mode : Lossy
Stream size : 330 MiB (22%)
Language : Russian
Service kind : Complete Main
Default : Yes
Forced : No

Menu
00:00:00.000 : Глава 1
00:08:27.240 : Глава 2
00:16:31.460 : Глава 3
00:24:22.750 : Глава 4
00:32:07.460 : Глава 5
00:40:41.340 : Глава 6
00:48:50.320 : Глава 7
00:56:35.830 : Глава 8
01:04:56.460 : Глава 9
01:13:26.090 : Глава 10
01:21:58.370 : Глава 11
01:30:34.460 : Глава 12
01:38:34.580 : Глава 13
01:46:42.090 : Глава 14
kino.freetor.icu



Скачать Доктор Лиза через торрент http://i6.imageban.ru/out/2017/09/18/2ff75c0c358795c5946784cc1680714d.png Скачать, смотреть онлайн Доктор Лиза бесплантно в хорошем качестве Описание: Один день из жизни Елизаветы Глинки — филантропа и основательницы фонда «Справедливая помощь». Еще утром она планировала провести ... 8.2 10 5
Info! Золотая раздача, скачанное не засчитывается.
Торрент: Зарегистрирован [2021-04-12 15:03] · скачан: 115 раз
Статус: √ проверено
Размер: 1.48 GB
Как cкачать? Как скачать Доктор Лиза через торрент | UTorrent

% Раздел Тема Автор DL S | L
Наши новые фильмы 2020 - 2021 [ 748 MB ] Доктор Лиза [2020 биография WEB-DLRip] bober100 Скачать
1 | 0
Фильмы (WEB-DL 720p, 1080p) [ 4.16 GB ] Доктор Лиза [2020 биография WEB-DL 1080p] bober100 Скачать
4 | 0
Наши новые фильмы 2020 - 2021 [ 2.21 GB ] Доктор Лиза [2020 биография WEB-DLRip-AVC] bober100 Скачать
1 | 0
Наши новые фильмы 2020 - 2021 [ 1.47 GB ] Доктор Лиза [2020 биография WEB-DLRip] bober100 Скачать
2 | 0

28-11-2019 20:33  

Отключить всю рекламу на сайте

    Дорогой пользователь! Огромная просьба, поблагодарите релизера, оцените раздачу и оставьте свои комментарий, если Вы скачали Доктор Лиза через торрент бесплатно!
    Комментировать посты могут только пользователи прошедшие не сложную регистрацию
    Показать сообщения:    

    Доктор Лиза через торрент
    Скачать бесплатно Доктор Лиза
    Доктор Лиза скачать торрент
    Доктор Лиза смотреть онлайн
    Cкачать фильм Доктор Лиза бесплатно
    Доктор Лиза скачать торрент в хорошем качестве
    Доктор Лиза смотреть онлайн бесплатно в хорошем качестве


    Вы не можете начинать темы
    Вы не можете отвечать на сообщения
    Вы не можете редактировать свои сообщения
    Вы не можете удалять свои сообщения
    Вы не можете голосовать в опросах
    Вы не можете прикреплять файлы к сообщениям
    Вы можете скачивать файлы