Anonymous, доброй ночи, присоединяйтесь к нам в Telegram!, здесь всегда актуальный адрес сайта, оперативная поддержка и многое другое!

>

5.6

iTunes

7.4

iTunes

5.7

MVO

1

7.7

1 сезон

6.8

iTunes

7.3

1 сезон

13

6.7

1 сезон

8.3

RePack

30

ULTIMATE

pack

9.9

Лицензия

ВАЖНО

ИГРА 18+

pack

7.3

RePack

MK11

7.7

RePack

jed

7.8

RePack

fifa19

8.5

RePack

RDR2

RePack

NEED FOR SPEED™ PAYBACK

4 сезон

9 сезон

Бесстыжие 9 сезон

Все сериалы

все сериалы на PB.wtf

RePack

FAR CRY 5

Anonymous, доброй ночи, мы катастрофически не успеваем собрать деньги на оплату серверов, помогите нам пожалуйста 5,10,15р., для нас важна любая помощь . В качестве благодарности мы отключим Вам всю рекламу на сайте (укажите свой ник в строку Ваше имя)!

×
  
Magnet ссылка

Спасите Колю! (Дмитрий Губарев) [2020, комедия, WEB-DLRip-AVC] kino.freetor.icu

Спасите Колю! через торрент kino.freetor.icu

Раздают: 127 [ 110 KB/s ] Качают: 1 [ 268 KB/s ]
Размер: 1.43 GB | Добавлен: 6 мес. назад | Торрент скачан:666 раз
Смотреть онлайн Спасите Колю! | Скачать    Ребята, помогите собрать деньги на оплату серверов!!!

15-04-2021 12:04 Спасите Колю! Скачать торрент  

Спасите Колю!

Страна: Россия
Жанр: комедия
Год выпуска: 2020
Продолжительность: 01:34:59

Перевод: Не требуется
Субтитры: нет
Оригинальная аудиодорожка: русский

Режиссер: Дмитрий Губарев

В ролях: Дмитрий Нагиев, Анна Родоная, Иван Злобин, Кузьма Сапрыкин, Иван Писоцкий, Алексей Золотовицкий, Галина Польских, Нонна Гришаева, Юлия Франц, Владимир Сычев

Описание: У студентки Маши Матушкиной все в жизни могло быть прекрасно, если бы не одна большая проблема: вырастивший её в одиночку отец командует военкоматом. Из-за этого ни один парень возле Маши надолго не задерживается — один за другим они уезжают проходить армейскую службу по призыву в самые дальние уголки России. И хотя Маша искренне любит своего упрямого папу, окончательное столкновение характеров неизбежно. И так получается, что случится эта эпическая битва в день юбилея уважаемого военкома.

rating

Релиз:

Автор рипа: stalkerok

Сэмпл

Качество видео: WEB-DLRip-AVC | Исходник: Spasite.Kolyu.2020.1080p.IVI.WEB-DL.AAC5.1.H.264-EniaHD (thx karvai)
Формат видео: MKV
Видео кодек: AVC
Аудио кодек: AC3
Видео: AVC, 1764 Кбит/сек, 1046x438 (2.40:1), 25 кадр/сек
Аудио: AC3, 384 Кбит/сек, 48 КГц, 5.1 - русский
---[Information] [15.04.2021 14:44:36] x264 [info]: frame I:1475 Avg QP:16.28 size: 51549
---[Information] [15.04.2021 14:44:36] x264 [info]: frame P:33015 Avg QP:17.90 size: 18886
---[Information] [15.04.2021 14:44:36] x264 [info]: frame B:107990 Avg QP:20.81 size: 5165
---[Information] [15.04.2021 14:44:36] x264 [info]: consecutive B-frames: 3.0% 3.9% 11.2% 24.4% 14.3% 19.9% 21.7% 1.1% 0.1% 0.1% 0.1% 0.0% 0.1% 0.0% 0.2%

General
Unique ID : 337806859997223779757235040544637009301 (0xFE233C15E05E6D417B46593F3D7B3D95)
Complete name : J:\Spasite.Kolyu.2020\Spasite.Kolyu.2020.WEB-DLRip.x264.Rus.stalkerok.New-Team.mkv
Format : Matroska
Format version : Version 4
File size : 1.43 GiB
Duration : 1 h 34 min
Overall bit rate : 2 151 kb/s
Movie name : Спасите Колю! (2020) | Rip by stalkerok
Encoded date : UTC 2021-04-15 11:47:24
Writing application : mkvmerge v56.1.0 ('My Friend') 64-bit
Writing library : libebml v1.4.2 + libmatroska v1.6.4

Video
ID : 1
Format : AVC
Format/Info : Advanced Video Codec
Format profile : High@L4.1
Format settings : CABAC / 12 Ref Frames
Format settings, CABAC : Yes
Format settings, Reference frames : 12 frames
Codec ID : V_MPEG4/ISO/AVC
Duration : 1 h 34 min
Bit rate : 1 765 kb/s
Width : 1 046 pixels
Height : 438 pixels
Display aspect ratio : 2.40:1
Frame rate mode : Constant
Frame rate : 25.000 FPS
Color space : YUV
Chroma subsampling : 4:2:0
Bit depth : 8 bits
Scan type : Progressive
Bits/(Pixel*Frame) : 0.154
Stream size : 1.17 GiB (82%)
Title : Rip by stalkerok
Writing library : x264 core 161 r3043+53M 5ab00ad t_mod_New [(8 & 10)-bit@all X86_64]
Encoding settings : cabac=1 / ref=12 / deblock=1:-3:-2 / analyse=0x3:0x133 / me=umh / subme=10 / psy=1 / fade_compensate=0.00 / psy_rd=1.00:0.00 / mixed_ref=1 / me_range=32 / chroma_me=1 / trellis=2 / 8x8dct=1 / cqm=0 / deadzone=21,11 / fast_pskip=0 / chroma_qp_offset=-2 / threads=12 / lookahead_threads=3 / sliced_threads=0 / nr=0 / decimate=1 / interlaced=0 / bluray_compat=0 / constrained_intra=0 / fgo=0 / bframes=14 / b_pyramid=2 / b_adapt=2 / b_bias=0 / direct=3 / weightb=1 / open_gop=0 / weightp=2 / keyint=250 / keyint_min=25 / scenecut=40 / intra_refresh=0 / rc_lookahead=60 / rc=crf / mbtree=0 / crf=18.1000 / qcomp=0.65 / qpmin=0:0:0 / qpmax=69:69:69 / qpstep=4 / vbv_maxrate=50000 / vbv_bufsize=62500 / crf_max=0.0 / nal_hrd=none / filler=0 / ip_ratio=1.40 / pb_ratio=1.30 / aq=3:0.80 / aq-sensitivity=10.00 / aq-factor=1.00:1.00:1.00 / aq2=0 / aq3=0
Default : Yes
Forced : No

Audio
ID : 2
Format : AC-3
Format/Info : Audio Coding 3
Commercial name : Dolby Digital
Codec ID : A_AC3
Duration : 1 h 34 min
Bit rate mode : Constant
Bit rate : 384 kb/s
Channel(s) : 6 channels
Channel layout : L R C LFE Ls Rs
Sampling rate : 48.0 kHz
Frame rate : 31.250 FPS (1536 SPF)
Compression mode : Lossy
Stream size : 261 MiB (18%)
Language : Russian
Service kind : Complete Main
Default : Yes
Forced : No
kino.freetor.icu



Скачать Спасите Колю! через торрент http://i6.imageban.ru/out/2017/09/18/2ff75c0c358795c5946784cc1680714d.png Скачать, смотреть онлайн Спасите Колю! бесплантно в хорошем качестве Описание: У студентки Маши Матушкиной все в жизни могло быть прекрасно, если бы не одна большая проблема: вырастивший её в одиночку отец ... 10 10 12
Info! Золотая раздача, скачанное не засчитывается.
Торрент: Зарегистрирован [2021-04-15 12:04] · скачан: 666 раз
Статус: √ проверено
Размер: 1.43 GB
Как cкачать? Как скачать Спасите Колю! через торрент | UTorrent

% Раздел Тема Автор DL S | L
T Наши фильмы (HD, WEB-DL 720p, 1080p) [ 3.99 GB ] Спасите Колю! [2021 WEBRip 1080p] [IVI] bober100 Скачать
5 | 0
T Наши новые фильмы 2020 - 2021 [ 1.46 GB ] Спасите Колю! [2021 WEBRip] [IVI] bober100 Скачать
4 | 0

28-11-2019 20:33  

Отключить всю рекламу на сайте

16-04-2021 14:11 Спасите Колю! Скачать торрент  

и тишинаkino.freetor.icu



16-04-2021 18:16 Спасите Колю! Скачать торрент  

......kino.freetor.icu



    Дорогой пользователь! Огромная просьба, поблагодарите релизера, оцените раздачу и оставьте свои комментарий, если Вы скачали Спасите Колю! через торрент бесплатно!
    Комментировать посты могут только пользователи прошедшие не сложную регистрацию
    Показать сообщения:    

    Спасите Колю! через торрент
    Скачать бесплатно Спасите Колю!
    Спасите Колю! скачать торрент
    Спасите Колю! смотреть онлайн
    Cкачать фильм Спасите Колю! бесплатно
    Спасите Колю! скачать торрент в хорошем качестве
    Спасите Колю! смотреть онлайн бесплатно в хорошем качестве


    Вы не можете начинать темы
    Вы не можете отвечать на сообщения
    Вы не можете редактировать свои сообщения
    Вы не можете удалять свои сообщения
    Вы не можете голосовать в опросах
    Вы не можете прикреплять файлы к сообщениям
    Вы можете скачивать файлы