Anonymous, доброе утро, присоединяйтесь к нам в Telegram!, здесь всегда актуальный адрес сайта, оперативная поддержка и многое другое!

>

5.5

iTunes

7.4

iTunes

7.9

iTunes

1

7.7

1 сезон

6.8

iTunes

7.3

1 сезон

13

6.7

1 сезон

8.3

RePack

30

ULTIMATE

pack

9.9

Лицензия

ВАЖНО

ИГРА 18+

pack

7.3

RePack

MK11

7.7

RePack

jed

7.8

RePack

fifa19

8.5

RePack

RDR2

RePack

NEED FOR SPEED™ PAYBACK

4 сезон

9 сезон

Бесстыжие 9 сезон

Все сериалы

все сериалы на PB.wtf

RePack

FAR CRY 5

Anonymous, доброе утро, мы катастрофически не успеваем собрать деньги на оплату серверов, помогите нам пожалуйста 5,10,15р., для нас важна любая помощь . В качестве благодарности мы отключим Вам всю рекламу на сайте (укажите свой ник в строку Ваше имя)!

×
  
Magnet ссылка

Право выбора (Елена Пискарева) [2020, драма, WEBRip-AVC] kino.freetor.icu

Право выбора через торрент kino.freetor.icu

Раздают: 23 [ 40 KB/s ] Качают: 1 [ 57 KB/s ]
Размер: 1.49 GB | Добавлен: 5 мес. 27 д. назад | Торрент скачан:80 раз
Смотреть онлайн Право выбора | Скачать    Ребята, помогите собрать деньги на оплату серверов!!!

28-04-2021 08:12 Право выбора Скачать торрент  

Право выбора

Страна: Россия
Жанр: драма
Год выпуска: 2020
Продолжительность: 02:06:41

Перевод: Не требуется
Субтитры: нет
Оригинальная аудиодорожка: русский

Режиссер: Елена Пискарева

В ролях: Эдуард Флёров, Ирина Пегова, Борис Каморзин, Валентина Ляпина, Ирина Вилкова, Елена Панова, Наталья Сагал, Наталья Кийко, Юлия Беляева, Наталья Боруцкая

Описание: На должность главврача роддома назначен молодой сорокалетний хирург Олег Волков, который пытается изменить абортивное сознание общества хотя бы на уровне своего роддома, где помимо родов, также делают и аборты - как везде в России.



Релиз:

Автор рипа: stalkerok

Сэмпл

Качество видео: WEBRip-AVC | Исходник: Pravo.Vybora.2020.Workprint.1080p (thx ViktorMzz)
Формат видео: MKV
Видео кодек: AVC
Аудио кодек: AC3
Видео: AVC, 1456 Кбит/сек, 1102x582 (1.893), 24 кадр/сек
Аудио: AC3, 224 Кбит/сек, 48 КГц, 2.0 - русский
---[Information] [27.04.2021 22:47:30] x264 [info]: frame I:1321 Avg QP:15.42 size: 61781
---[Information] [27.04.2021 22:47:30] x264 [info]: frame P:43659 Avg QP:17.08 size: 17414
---[Information] [27.04.2021 22:47:30] x264 [info]: frame B:137467 Avg QP:20.71 size: 3941
---[Information] [27.04.2021 22:47:30] x264 [info]: consecutive B-frames: 1.6% 2.7% 6.4% 56.6% 9.9% 14.5% 3.2% 3.0% 1.1% 0.8% 0.0% 0.0% 0.0% 0.0% 0.2%

General
Unique ID : 21849479700626347256793175489723182999 (0x10700E855D290BB095231129C65F2F97)
Complete name : J:\Pravo.Vybora.2020\Pravo.Vybora.2020.WEBRip.x264.Rus.stalkerok.New-Team.mkv
Format : Matroska
Format version : Version 4
File size : 1.49 GiB
Duration : 2 h 6 min
Overall bit rate : 1 682 kb/s
Movie name : Право выбора (2020) | Rip by stalkerok
Encoded date : UTC 2021-04-28 06:36:46
Writing application : mkvmerge v56.1.0 ('My Friend') 64-bit
Writing library : libebml v1.4.2 + libmatroska v1.6.4

Video
ID : 1
Format : AVC
Format/Info : Advanced Video Codec
Format profile : High@L4.1
Format settings : CABAC / 12 Ref Frames
Format settings, CABAC : Yes
Format settings, Reference frames : 12 frames
Codec ID : V_MPEG4/ISO/AVC
Duration : 2 h 6 min
Bit rate : 1 456 kb/s
Width : 1 102 pixels
Height : 582 pixels
Display aspect ratio : 1.893
Frame rate mode : Constant
Frame rate : 24.000 FPS
Color space : YUV
Chroma subsampling : 4:2:0
Bit depth : 8 bits
Scan type : Progressive
Bits/(Pixel*Frame) : 0.095
Stream size : 1.29 GiB (87%)
Title : Rip by stalkerok
Writing library : x264 core 161 r3043+53M 5ab00ad t_mod_New [(8 & 10)-bit@all X86_64]
Encoding settings : cabac=1 / ref=12 / deblock=1:-3:-2 / analyse=0x3:0x133 / me=umh / subme=10 / psy=1 / fade_compensate=0.00 / psy_rd=1.00:0.00 / mixed_ref=1 / me_range=32 / chroma_me=1 / trellis=2 / 8x8dct=1 / cqm=0 / deadzone=21,11 / fast_pskip=0 / chroma_qp_offset=-2 / threads=12 / lookahead_threads=3 / sliced_threads=0 / nr=0 / decimate=1 / interlaced=0 / bluray_compat=0 / constrained_intra=0 / fgo=0 / bframes=14 / b_pyramid=2 / b_adapt=2 / b_bias=0 / direct=3 / weightb=1 / open_gop=0 / weightp=2 / keyint=240 / keyint_min=23 / scenecut=40 / intra_refresh=0 / rc_lookahead=60 / rc=crf / mbtree=0 / crf=19.3000 / qcomp=0.65 / qpmin=0:0:0 / qpmax=69:69:69 / qpstep=4 / vbv_maxrate=50000 / vbv_bufsize=62500 / crf_max=0.0 / nal_hrd=none / filler=0 / ip_ratio=1.40 / pb_ratio=1.30 / aq=3:0.80 / aq-sensitivity=10.00 / aq-factor=1.00:1.00:1.00 / aq2=0 / aq3=0
Default : Yes
Forced : No

Audio
ID : 2
Format : AC-3
Format/Info : Audio Coding 3
Commercial name : Dolby Digital
Codec ID : A_AC3
Duration : 2 h 6 min
Bit rate mode : Constant
Bit rate : 224 kb/s
Channel(s) : 2 channels
Channel layout : L R
Sampling rate : 48.0 kHz
Frame rate : 31.250 FPS (1536 SPF)
Compression mode : Lossy
Stream size : 203 MiB (13%)
Language : Russian
Service kind : Complete Main
Default : Yes
Forced : No
kino.freetor.icu



Скачать Право выбора через торрент http://i6.imageban.ru/out/2017/09/18/2ff75c0c358795c5946784cc1680714d.png Скачать, смотреть онлайн Право выбора бесплантно в хорошем качестве Описание: На должность главврача роддома назначен молодой сорокалетний хирург Олег Волков, который пытается изменить абортивное сознание ... 10 10 6
Info! Золотая раздача, скачанное не засчитывается.
Торрент: Зарегистрирован [2021-04-28 08:12] · скачан: 80 раз
Статус: T временная
Размер: 1.49 GB
Как cкачать? Как скачать Право выбора через торрент | UTorrent

% Раздел Тема Автор DL S | L
Фантастика [ 462 MB ] Алексей Ковальчук - Мир валькирий 01. Право на выбор [Сергей Ларионов 2021 67 kbps MP3] bober100 Скачать
1 | 0
Наши сериалы [ 4.26 GB ] Без права на выбор / Серии: 01-04 из 04 [2013 военный WEB-DLRip-AVC] - KORSAR kisa1980 Скачать
1 | 0
Фантастика [ 365 MB ] Андрей Васильев - Файролл: Право выбора [Александр Чайцын 2016 52-57 Кбит/с MP3] Nixet Скачать
1 | 0
Наши сериалы [ 2.5 GB ] Без права на выбор [2013 военный DVDRip] coc900 Скачать
1 | 0

28-11-2019 20:33  

Отключить всю рекламу на сайте

    Дорогой пользователь! Огромная просьба, поблагодарите релизера, оцените раздачу и оставьте свои комментарий, если Вы скачали Право выбора через торрент бесплатно!
    Комментировать посты могут только пользователи прошедшие не сложную регистрацию
    Показать сообщения:    

    Право выбора через торрент
    Скачать бесплатно Право выбора
    Право выбора скачать торрент
    Право выбора смотреть онлайн
    Cкачать фильм Право выбора бесплатно
    Право выбора скачать торрент в хорошем качестве
    Право выбора смотреть онлайн бесплатно в хорошем качестве


    Вы не можете начинать темы
    Вы не можете отвечать на сообщения
    Вы не можете редактировать свои сообщения
    Вы не можете удалять свои сообщения
    Вы не можете голосовать в опросах
    Вы не можете прикреплять файлы к сообщениям
    Вы можете скачивать файлы