Anonymous, доброе утро, присоединяйтесь к нам в Telegram!, здесь всегда актуальный адрес сайта, оперативная поддержка и многое другое!

>

5.5

iTunes

7.4

iTunes

7.9

iTunes

1

7.7

1 сезон

6.8

iTunes

7.3

1 сезон

13

6.7

1 сезон

8.3

RePack

30

ULTIMATE

pack

9.9

Лицензия

ВАЖНО

ИГРА 18+

pack

7.3

RePack

MK11

7.7

RePack

jed

7.8

RePack

fifa19

8.5

RePack

RDR2

RePack

NEED FOR SPEED™ PAYBACK

4 сезон

9 сезон

Бесстыжие 9 сезон

Все сериалы

все сериалы на PB.wtf

RePack

FAR CRY 5

Anonymous, доброе утро, мы катастрофически не успеваем собрать деньги на оплату серверов, помогите нам пожалуйста 5,10,15р., для нас важна любая помощь . В качестве благодарности мы отключим Вам всю рекламу на сайте (укажите свой ник в строку Ваше имя)!

×
  
Magnet ссылка

Белый снег (Николай Хомерики) [2021 г., биография, спорт, драма, WEB-DLRip, Не требуется Русский "iTunes"] kino.freetor.icu

Белый снег через торрент kino.freetor.icu

Раздают: 1 [ 0 KB/s ]
Размер: 767 MB | Добавлен: 5 мес. 21 д. назад | Торрент скачан:124 раза
Смотреть онлайн Белый снег | Скачать    Ребята, помогите собрать деньги на оплату серверов!!!

04-05-2021 18:15 Белый снег Скачать торрент  

Белый снег
Год выпуска: 2021
Страна: Россия / EGO Production
Жанр: биография, спорт, драма
Продолжительность: 02:06:44
Перевод: Не требуется Русский (iTunes)
«Невероятная история лучшей лыжницы XX века»

Режиссер: Николай Хомерики

rating

В ролях: Ольга Лерман, Федор Добронравов, Надежда Маркина, Анна Уколова, Александр Устюгов, Михаил Беспалов, Ангелина Вяльбе, Дарья Екамасова, Анна Котова-Дерябина, Вадим Андреев

Описание: Фильм повествует о том, как маленькая девочка Лена из Магадана, преодолев все испытания, достигла высочайших успехов в спорте, а также о реальных событиях, произошедших в 1997 году на чемпионате мира по лыжным видам спорта в Норвегии, когда впервые в истории лыжных гонок российская лыжница Елена Вяльбе завоевала пять золотых медалей из пяти возможных.

Качество: WEB-DLRip
Формат: AVI
Видео кодек: DivX
Аудио кодек: MP3
Видео: 640x272 (2.35:1), 24.000 fps, DivX Codec 4.x ~708 kbps avg, 0.17 bit/pixel
Аудио: 48 kHz, MPEG Layer 3, 2 ch, ~128.00 kbps avg








Общее
Полное имя : G:\ФИЛЬМЫ\Белый снег.2021.WEB-DLRip.avi
Формат : AVI
Формат/Информация : Audio Video Interleave
Размер файла : 767 Мбайт
Продолжительность : 2 ч. 6 м.
Общий поток : 846 Кбит/сек
Программа кодирования : VirtualDubMod 1.5.10.3 | www.virtualdub-fr.org || (build 2550/release)
Библиотека кодирования : VirtualDubMod build 2550/release

Видео
Идентификатор : 0
Формат : MPEG-4 Visual
Профиль формата : Advanced Simple@L5
Настройки формата : BVOP2
Параметр BVOP формата : 2
Параметр QPel формата : Нет
Параметр GMC формата : Без точки перехода
Параметр матрицы формата : Default (MPEG)
Идентификатор кодека : DIVX
Идентификатор кодека/Информация : Project Mayo
Идентификатор кодека/Подсказка : DivX 4
Продолжительность : 2 ч. 6 м.
Битрейт : 709 Кбит/сек
Ширина : 640 пикселей
Высота : 272 пикселя
Соотношение сторон : 2,35:1
Частота кадров : 24,000 кадра/сек
Цветовое пространство : YUV
Субдискретизация насыщенности : 4:2:0
Битовая глубина : 8 бит
Тип развёртки : Прогрессивная
Метод сжатия : С потерями
Бит/(Пиксели*Кадры) : 0.170
Размер потока : 643 Мбайт (84%)
Библиотека кодирования : XviD 1.2.1 (UTC 2008-12-04)

Аудио
Идентификатор : 1
Формат : MPEG Audio
Версия формата : Version 1
Профиль формата : Layer 3
Настройки формата : Joint stereo / MS Stereo
Идентификатор кодека : 55
Идентификатор кодека/Подсказка : MP3
Продолжительность : 2 ч. 6 м.
Вид битрейта : Постоянный
Битрейт : 128 Кбит/сек
Каналы : 2 канала
Частота : 48,0 КГц
Частота кадров : 41,667 кадра/сек (1152 SPF)
Метод сжатия : С потерями
Размер потока : 116 Мбайт (15%)
Выравнивание : Соединение по промежуткам
Продолжительность промежутка : 42 мс. (1,00 видеокадр)
Время предзагрузки промежутка : 504 мс.
Библиотека кодирования : LAME3.99r
Настройки программы : -m j -V 4 -q 2 -lowpass 17 -b 128

Report created by : MediaInfoLib - v21.03
Report created on : UTC 2021-05-04 18:00:17

kino.freetor.icu



Скачать Белый снег через торрент https://pic1.kartinco.top/new/img/2021-05/04/o2qxms1lmzxjg0tqopzgs0kpc.jpg Скачать, смотреть онлайн Белый снег бесплантно в хорошем качестве Описание: Фильм повествует о том, как маленькая девочка Лена из Магадана, преодолев все испытания, достигла высочайших успехов в спорте, а ... 10 10 7
Торрент: Зарегистрирован [2021-05-04 18:15] · скачан: 124 раз
Статус: √ проверено
Размер: 767 MB
Как cкачать? Как скачать Белый снег через торрент | UTorrent

% Раздел Тема Автор DL S | L
Наши фильмы (HD, WEB-DL 720p, 1080p) [ 4.14 GB ] Белый снег [2021 биография WEB-DL 1080p] Russian Mafia Скачать
3 | 0
Отечественный шансон [ 114 MB ] Олег Безъязыков - Белый Снег России 2018 / MP3 / 320 kbps / Шансон bober100 Скачать
1 | 0
Разное [ 310 MB ] Юрий Воробьевский - Черный снег на белом поле [2008 MP3 96 kbps] metanoia Скачать
1 | 0
Фильмы 2010 [ 1.45 GB ] Белый как снег / Blanc comme neige [2010 HDRip [НТВ Ворон Скачать
1 | 0
Фильмы [HD 720p, 1080p] (Хороший звук DUB, MVO) [ 6.85 GB ] Белый как снег / Blanc comme neige [2010 BDRip ] Flint3 Скачать
1 | 0

28-11-2019 20:33  

Отключить всю рекламу на сайте

04-05-2021 18:23 Белый снег Скачать торрент  

Страна: Россия

Сразу на**й.kino.freetor.icu



04-05-2021 20:35 Белый снег Скачать торрент  

DeeMan писал(а):

Страна: Россия

Сразу на**й.

так точноkino.freetor.icu



04-05-2021 20:54 Белый снег Скачать торрент  

НГВР писал(а):

DeeMan писал(а):

Страна: Россия

Сразу на**й.

так точно

поддерживаюkino.freetor.icu



05-05-2021 03:04 Белый снег Скачать торрент  

эд76 писал(а):

НГВР писал(а):

DeeMan писал(а):

Страна: Россия

Сразу на**й.

так точно

поддерживаю

а нахер вы в тему тогда лезете? вот ваши каменты как раз на**й тут и не нужныkino.freetor.icu



05-05-2021 10:47 Белый снег Скачать торрент  

crest96 писал(а):

эд76 писал(а):

НГВР писал(а):

DeeMan писал(а):

Страна: Россия

Сразу на**й.

так точно

поддерживаю

а нахер вы в тему тогда лезете? вот ваши каменты как раз на**й тут и не нужны

+1kino.freetor.icu



10-05-2021 20:14 Белый снег Скачать торрент  

crest96 писал(а):

эд76 писал(а):

НГВР писал(а):

DeeMan писал(а):

Страна: Россия

Сразу на**й.

так точно

поддерживаю

а нахер вы в тему тогда лезете? вот ваши каменты как раз на**й тут и не нужны

полностью согласенkino.freetor.icu



22-05-2021 09:19 Белый снег Скачать торрент  

Эфиоп писал(а):

crest96 писал(а):

эд76 писал(а):

НГВР писал(а):

DeeMan писал(а):

Страна: Россия

Сразу на**й.

так точно

поддерживаю

а нахер вы в тему тогда лезете? вот ваши каменты как раз на**й тут и не нужны

полностью согласен

Однозначно такkino.freetor.icu



    Дорогой пользователь! Огромная просьба, поблагодарите релизера, оцените раздачу и оставьте свои комментарий, если Вы скачали Белый снег через торрент бесплатно!
    Комментировать посты могут только пользователи прошедшие не сложную регистрацию
    Показать сообщения:    

    Белый снег через торрент
    Скачать бесплатно Белый снег
    Белый снег скачать торрент
    Белый снег смотреть онлайн
    Cкачать фильм Белый снег бесплатно
    Белый снег скачать торрент в хорошем качестве
    Белый снег смотреть онлайн бесплатно в хорошем качестве


    Вы не можете начинать темы
    Вы не можете отвечать на сообщения
    Вы не можете редактировать свои сообщения
    Вы не можете удалять свои сообщения
    Вы не можете голосовать в опросах
    Вы не можете прикреплять файлы к сообщениям
    Вы можете скачивать файлы