Anonymous, добрый день, присоединяйтесь к нам в Telegram!, здесь всегда актуальный адрес сайта, оперативная поддержка и многое другое!

>

5.6

iTunes

7.4

iTunes

7.9

MVO

1

7.7

1 сезон

6.8

iTunes

7.3

1 сезон

13

6.7

1 сезон

8.3

RePack

30

ULTIMATE

pack

9.9

Лицензия

ВАЖНО

ИГРА 18+

pack

7.3

RePack

MK11

7.7

RePack

jed

7.8

RePack

fifa19

8.5

RePack

RDR2

RePack

NEED FOR SPEED™ PAYBACK

4 сезон

9 сезон

Бесстыжие 9 сезон

Все сериалы

все сериалы на PB.wtf

RePack

FAR CRY 5

Anonymous, добрый день, мы катастрофически не успеваем собрать деньги на оплату серверов, помогите нам пожалуйста 5,10,15р., для нас важна любая помощь . В качестве благодарности мы отключим Вам всю рекламу на сайте (укажите свой ник в строку Ваше имя)!

×
  
Magnet ссылка

Рядовой Чээрин (Дмитрий Кольцов) [2020 г., военный, WEB-DLRip, Не требуется Русский "iTunes"] kino.freetor.icu

Рядовой Чээрин через торрент kino.freetor.icu

Раздают: 1 [ 0 KB/s ]
Размер: 719 MB | Добавлен: 5 мес. 12 д. назад | Торрент скачан:111 раз
Смотреть онлайн Рядовой Чээрин | Скачать    Ребята, помогите собрать деньги на оплату серверов!!!

10-05-2021 18:45 Рядовой Чээрин Скачать торрент  

Рядовой Чээрин
Год выпуска: 2020
Страна: Россия
Жанр: военный
Продолжительность: 01:35:08
Перевод: Не требуется Русский (iTunes)

Режиссер: Дмитрий Кольцов



В ролях: Айтал Степанов, Александр Казанцев, Даниил Журавлев, Дмитрий Кольцов, Павел Погодаев, Дмитрий Трофимов, Геннадий Куникеев, Вячеслав Юдин, Юрий Гаретовский, Дмитрий Варенов

Описание: Глубокая осень 1943 года. Немецкие снайперы хозяйничают на передовой. Молодой охотник Егор Чээрин, только прибывший на фронт, становится снайпером. В первом же бою ему удается проявить себя, он вступает в схватку с немецкими захватчиками и меняет баланс сил на передовой.

Качество: WEB-DLRip
Формат: AVI
Видео кодек: DivX
Аудио кодек: MP3
Видео: 640x272 (2.35:1), 24.000 fps, DivX Codec 4.x ~918 kbps avg, 0.22 bit/pixel
Аудио: 48 kHz, MPEG Layer 3, 2 ch, ~128.00 kbps avg





Общее
Полное имя : G:\ФИЛЬМЫ\Рядовой Чээрин.2020.WEB-DLRip.avi
Формат : AVI
Формат/Информация : Audio Video Interleave
Размер файла : 719 Мбайт
Продолжительность : 1 ч. 35 м.
Общий поток : 1 056 Кбит/сек
Программа кодирования : VirtualDubMod 1.5.10.3 | www.virtualdub-fr.org || (build 2550/release)
Библиотека кодирования : VirtualDubMod build 2550/release

Видео
Идентификатор : 0
Формат : MPEG-4 Visual
Профиль формата : Advanced Simple@L5
Настройки формата : BVOP2
Параметр BVOP формата : 2
Параметр QPel формата : Нет
Параметр GMC формата : Без точки перехода
Параметр матрицы формата : Default (MPEG)
Идентификатор кодека : DIVX
Идентификатор кодека/Информация : Project Mayo
Идентификатор кодека/Подсказка : DivX 4
Продолжительность : 1 ч. 35 м.
Битрейт : 919 Кбит/сек
Ширина : 640 пикселей
Высота : 272 пикселя
Соотношение сторон : 2,35:1
Частота кадров : 24,000 кадра/сек
Цветовое пространство : YUV
Субдискретизация насыщенности : 4:2:0
Битовая глубина : 8 бит
Тип развёртки : Прогрессивная
Метод сжатия : С потерями
Бит/(Пиксели*Кадры) : 0.220
Размер потока : 625 Мбайт (87%)
Библиотека кодирования : XviD 1.2.1 (UTC 2008-12-04)

Аудио
Идентификатор : 1
Формат : MPEG Audio
Версия формата : Version 1
Профиль формата : Layer 3
Настройки формата : Joint stereo
Идентификатор кодека : 55
Идентификатор кодека/Подсказка : MP3
Продолжительность : 1 ч. 35 м.
Вид битрейта : Постоянный
Битрейт : 128 Кбит/сек
Каналы : 2 канала
Частота : 48,0 КГц
Частота кадров : 41,667 кадра/сек (1152 SPF)
Метод сжатия : С потерями
Размер потока : 87,1 Мбайт (12%)
Выравнивание : Соединение по промежуткам
Продолжительность промежутка : 42 мс. (1,00 видеокадр)
Время предзагрузки промежутка : 504 мс.
Библиотека кодирования : LAME3.99r
Настройки программы : -m j -V 4 -q 2 -lowpass 17 -b 128

Report created by : MediaInfoLib - v21.03
Report created on : UTC 2021-05-10 18:09:12

kino.freetor.icu



Скачать Рядовой Чээрин через торрент https://pic1.kartinco.top/new/img/2021-05/10/zoe9yayipahnvkdxw6l10dc6o.jpg Скачать, смотреть онлайн Рядовой Чээрин бесплантно в хорошем качестве Описание: Глубокая осень 1943 года. Немецкие снайперы хозяйничают на передовой. Молодой охотник Егор Чээрин, только прибывший на фронт, ... 9.9 10 8
Info! Золотая раздача, скачанное не засчитывается.
Торрент: Зарегистрирован [2021-05-10 18:45] · скачан: 111 раз
Статус: √ проверено
Размер: 719 MB
Как cкачать? Как скачать Рядовой Чээрин через торрент | UTorrent

% Раздел Тема Автор DL S | L
Наши фильмы (HD, WEB-DL 720p, 1080p) [ 3.25 GB ] Рядовой Чээрин [2021 Военный WEB-DL 1080p] bober100 Скачать
4 | 1
Наши новые фильмы 2020 - 2021 [ 1.46 GB ] Рядовой Чээрин [2021 Военный WEB-DLRip] bober100 Скачать
12 | 0

28-11-2019 20:33  

Отключить всю рекламу на сайте

    Дорогой пользователь! Огромная просьба, поблагодарите релизера, оцените раздачу и оставьте свои комментарий, если Вы скачали Рядовой Чээрин через торрент бесплатно!
    Комментировать посты могут только пользователи прошедшие не сложную регистрацию
    Показать сообщения:    

    Рядовой Чээрин через торрент
    Скачать бесплатно Рядовой Чээрин
    Рядовой Чээрин скачать торрент
    Рядовой Чээрин смотреть онлайн
    Cкачать фильм Рядовой Чээрин бесплатно
    Рядовой Чээрин скачать торрент в хорошем качестве
    Рядовой Чээрин смотреть онлайн бесплатно в хорошем качестве


    Вы не можете начинать темы
    Вы не можете отвечать на сообщения
    Вы не можете редактировать свои сообщения
    Вы не можете удалять свои сообщения
    Вы не можете голосовать в опросах
    Вы не можете прикреплять файлы к сообщениям
    Вы можете скачивать файлы