Anonymous, доброй ночи, присоединяйтесь к нам в Telegram!, здесь всегда актуальный адрес сайта, оперативная поддержка и многое другое!

>

5.6

iTunes

7.4

iTunes

5.7

MVO

1

7.7

1 сезон

6.8

iTunes

7.3

1 сезон

13

6.7

1 сезон

8.3

RePack

30

ULTIMATE

pack

9.9

Лицензия

ВАЖНО

ИГРА 18+

pack

7.3

RePack

MK11

7.7

RePack

jed

7.8

RePack

fifa19

8.5

RePack

RDR2

RePack

NEED FOR SPEED™ PAYBACK

4 сезон

9 сезон

Бесстыжие 9 сезон

Все сериалы

все сериалы на PB.wtf

RePack

FAR CRY 5

Anonymous, доброй ночи, мы катастрофически не успеваем собрать деньги на оплату серверов, помогите нам пожалуйста 5,10,15р., для нас важна любая помощь . В качестве благодарности мы отключим Вам всю рекламу на сайте (укажите свой ник в строку Ваше имя)!

×
  
Magnet ссылка

Огонь (Алексей Нужный) [2020, Драма, приключения, BDRip-AVC] [GER Transfer / Лицензия] kino.freetor.icu

Огонь через торрент kino.freetor.icu

Раздают: 1 [ 0 KB/s ]
Размер: 2.83 GB | Добавлен: 3 мес. 21 д. назад | Торрент скачан:133 раза
Смотреть онлайн Огонь | Скачать    Ребята, помогите собрать деньги на оплату серверов!!!

26-06-2021 00:50 Огонь Скачать торрент  

Огонь
Год выпуска: 2020
Страна: Россия
Студия: Студия Тритэ
Жанр: Драма, приключения
Продолжительность: 02:11:58
Перевод: Не требуется | Лицензия BD GER
Субтитры: Русские (форсированные, полные (FenixDeaf))

Режиссер: Алексей Нужный

rating

В ролях: Константин Хабенский, Иван Янковский, Стася Милославская, Антон Богданов, Виктор Добронравов, Роман Курцын, Тихон Жизневский, Ирина Горбачева, Евгения Дмитриева, Юрий Кузнецов

Описание: Героическая история о пожарных и спасателях. То, что обычно называют подвигом, для них — привычные будни, если только можно привыкнуть к смертельной опасности и предельному риску. Когда людям, попавшим в беду, кажется, что помощи ждать неоткуда, на выручку приходят спасатели, чтобы встать на пути беспощадной стихии.

Качество: BDRip-AVC
Формат: MKV

Видео: 1024x428 (2.40:1), 24 fps, MPEG-4 AVC, 2620 Кbps avg, 0.249 bit/pixel
Аудио: AC3, 48 kHz, 6 ch, ~448.00 kbps avg | русский | Blu-ray GER
скриншот  скриншот  скриншот  скриншот  скриншот  

x264 [info]: frame I:1396 Avg QP:14.68 size: 69136
x264 [info]: frame P:44214 Avg QP:18.23 size: 26219
x264 [info]: frame B:144427 Avg QP:19.57 size: 9254
x264 [info]: consecutive B-frames: 2.7% 3.4% 9.0% 27.3% 19.1% 26.3% 6.2% 2.9% 1.4% 1.0% 0.8%
x264 [info]: mb I I16..4: 6.0% 73.5% 20.5%
x264 [info]: mb P I16..4: 0.6% 11.3% 1.9% P16..4: 29.4% 37.1% 15.2% 0.0% 0.0% skip: 4.4%
x264 [info]: mb B I16..4: 0.1% 1.4% 0.2% B16..8: 32.7% 24.5% 5.6% direct: 6.2% skip:29.3% L0:43.0% L1:40.4% BI:16.6%
x264 [info]: 8x8 transform intra:80.4% inter:57.2%
x264 [info]: direct mvs spatial:97.0% temporal:3.0%
x264 [info]: coded y,uvDC,uvAC intra: 91.1% 89.1% 74.0% inter: 31.0% 26.3% 12.8%
x264 [info]: i16 v,h,dc,p: 23% 11% 7% 58%
x264 [info]: i8 v,h,dc,ddl,ddr,vr,hd,vl,hu: 9% 8% 6% 9% 14% 14% 14% 13% 14%
x264 [info]: i4 v,h,dc,ddl,ddr,vr,hd,vl,hu: 11% 8% 5% 8% 15% 14% 14% 11% 13%
x264 [info]: i8c dc,h,v,p: 42% 22% 18% 18%
x264 [info]: Weighted P-Frames: Y:6.2% UV:4.4%
x264 [info]: ref P L0: 47.7% 13.2% 14.9% 6.0% 4.8% 3.5% 3.1% 1.8% 1.7% 1.5% 1.6% 0.2% 0.0%
x264 [info]: ref B L0: 74.9% 10.7% 5.3% 2.7% 1.9% 1.5% 1.2% 0.8% 0.6% 0.3%
x264 [info]: ref B L1: 95.2% 4.8%
x264 [info]: kb/s:2619.06

encoded 190037 frames, 45.26 fps, 2619.06 kb/s
***********************************************

Общее
Уникальный идентификатор : 223995958791610852472523168611456688757 (0xA8840D6D175768E120C120AE1262A275)
Полное имя : Ogon.2020.GER.BDRip.2.83Gb.x264.MegaPeer.mkv
Формат : Matroska
Версия формата : Version 4
Размер файла : 2,83 Гбайт
Продолжительность : 2 ч. 11 м.
Общий поток : 3 069 Кбит/сек
Название фильма : Огонь (2020) от MegaPeer
Дата кодирования : UTC 2021-06-26 00:22:10
Программа кодирования : mkvmerge v47.0.0 ('Black Flag') 64-bit
Библиотека кодирования : libebml v1.3.10 + libmatroska v1.5.2
Обложка : Yes
Attachments : cover.jpg

Видео
Идентификатор : 1
Формат : AVC
Формат/Информация : Advanced Video Codec
Профиль формата : High@L4.1
Настройки формата : CABAC / 11 Ref Frames
Параметр CABAC формата : Да
Параметр RefFrames формата : 11 кадров
Идентификатор кодека : V_MPEG4/ISO/AVC
Продолжительность : 2 ч. 11 м.
Битрейт : 2 620 Кбит/сек
Ширина : 1 024 пикселя
Высота : 428 пикселей
Соотношение сторон : 2,40:1
Режим частоты кадров : Постоянный
Частота кадров : 24,000 кадра/сек
Цветовое пространство : YUV
Субдискретизация насыщенности : 4:2:0
Битовая глубина : 8 бит
Тип развёртки : Прогрессивная
Бит/(Пиксели*Кадры) : 0.249
Размер потока : 2,41 Гбайт (85%)
Заголовок : stillet@MegaPeer
Библиотека кодирования : x264 core 161 r3018 db0d417
Настройки программы : cabac=1 / ref=11 / deblock=1:-2:-2 / analyse=0x3:0x113 / me=umh / subme=11 / psy=1 / psy_rd=1.00:0.00 / mixed_ref=1 / me_range=48 / chroma_me=1 / trellis=2 / 8x8dct=1 / cqm=0 / deadzone=21,11 / fast_pskip=0 / chroma_qp_offset=-2 / threads=13 / lookahead_threads=3 / sliced_threads=0 / nr=0 / decimate=0 / interlaced=0 / bluray_compat=0 / constrained_intra=0 / bframes=10 / b_pyramid=2 / b_adapt=2 / b_bias=0 / direct=3 / weightb=1 / open_gop=0 / weightp=2 / keyint=240 / keyint_min=24 / scenecut=40 / intra_refresh=0 / rc_lookahead=40 / rc=2pass / mbtree=0 / bitrate=2620 / ratetol=1.0 / qcomp=0.60 / qpmin=0 / qpmax=69 / qpstep=4 / cplxblur=20.0 / qblur=0.5 / vbv_maxrate=50000 / vbv_bufsize=62500 / nal_hrd=none / filler=0 / ip_ratio=1.40 / pb_ratio=1.30 / aq=1:1.10
Язык : German
Default : Да
Forced : Нет

Аудио
Идентификатор : 2
Формат : AC-3
Формат/Информация : Audio Coding 3
Коммерческое название : Dolby Digital
Идентификатор кодека : A_AC3
Продолжительность : 2 ч. 11 м.
Вид битрейта : Постоянный
Битрейт : 448 Кбит/сек
Каналы : 6 каналов
Channel layout : L R C LFE Ls Rs
Частота : 48,0 КГц
Частота кадров : 31,250 кадров/сек (1536 SPF)
Метод сжатия : С потерями
Размер потока : 423 Мбайт (15%)
Заголовок : Blu-ray GER
Язык : Russian
Service kind : Complete Main
Default : Да
Forced : Нет

Текст #1
Идентификатор : 3
Формат : UTF-8
Идентификатор кодека : S_TEXT/UTF8
Идентификатор кодека/Информация : UTF-8 Plain Text
Продолжительность : 1 ч. 57 м.
Битрейт : 0 бит/сек
Count of elements : 3
Размер потока : 324 байт (0%)
Заголовок : Forced
Язык : Russian
Default : Да
Forced : Нет

Текст #2
Идентификатор : 4
Формат : UTF-8
Идентификатор кодека : S_TEXT/UTF8
Идентификатор кодека/Информация : UTF-8 Plain Text
Продолжительность : 2 ч. 0 м.
Битрейт : 76 бит/сек
Count of elements : 1263
Размер потока : 67,8 Кбайт (0%)
Заголовок : Full (FenixDeaf)
Язык : Russian
Default : Нет
Forced : Нет

Меню
00:00:00.000 : :ger: 01
00:04:45.082 : :ger: 02
00:10:52.125 : :ger: 03
00:17:12.375 : :ger: 04
00:25:08.083 : :ger: 05
00:38:17.000 : :ger: 06
00:48:36.208 : :ger: 07
00:58:45.833 : :ger: 08
01:07:42.875 : :ger: 09
01:14:53.082 : :ger: 10
01:22:13.500 : :ger: 11
01:27:49.125 : :ger: 12
01:34:50.000 : :ger: 13
01:45:05.041 : :ger: 14
01:50:53.041 : :ger: 15
02:02:25.500 : :ger: 16
02:11:57.166 : :ger: 17

kino.freetor.icu



Скачать Огонь через торрент https://i114.fastpic.ru/big/2021/0223/38/115ce263918e9d2f3ecb7b69093e9338.jpg Скачать, смотреть онлайн Огонь бесплантно в хорошем качестве Описание: Героическая история о пожарных и спасателях. То, что обычно называют подвигом, для них — привычные будни, если только можно ... 10 10 6
Торрент: Зарегистрирован [2021-06-26 00:50] · скачан: 133 раз
Статус: √ проверено
Размер: 2.83 GB
Как cкачать? Как скачать Огонь через торрент | UTorrent

% Раздел Тема Автор DL S | L
Фантастика [ 1.01 GB ] Наталия Осояну - Дети Великого шторма 2. Звездный огонь [Солонинкина Татьяна 2020 128 kbps MP3] bober100 Скачать
1 | 0
Фильмы (HD 720p, 1080p) (48-60 fps) [ 4.3 GB ] Огонь из преисподней / Fire Down Below [1997 WEB-DLRip 720p / 60 FPS ] от R.G. HD-Films slaventi-69 Скачать
1 | 0
Наши фильмы 2018-2019 [ 1.46 GB ] Внутренний огонь [2020 WEB-DLRip] bober100 Скачать
1 | 0
Фильмы 2019-2020 [DVDrip, WEB-DLRip, HDrip] (DUB, MVO) [ 745 MB ] Внутренний огонь [2020 WEB-DLRip] bober100 Скачать
1 | 0
Наши фильмы (HD, WEB-DL 720p, 1080p) [ 3.36 GB ] Внутренний огонь [2020 WEB-DL 1080p] bober100 Скачать
2 | 0
Кино СССР [ 4.37 GB ] Вызываем огонь на себя [1964 СССР военный SATRip-AVC от AVP Studio] AVP Studio Скачать
1 | 0
Кино СССР [ 4.37 GB ] Вызываем огонь на себя [1964 СССР военный SATRip от AVP Studio] AVP Studio Скачать
1 | 0

28-11-2019 20:33  

Отключить всю рекламу на сайте

    Дорогой пользователь! Огромная просьба, поблагодарите релизера, оцените раздачу и оставьте свои комментарий, если Вы скачали Огонь через торрент бесплатно!
    Комментировать посты могут только пользователи прошедшие не сложную регистрацию
    Показать сообщения:    

    Огонь через торрент
    Скачать бесплатно Огонь
    Огонь скачать торрент
    Огонь смотреть онлайн
    Cкачать фильм Огонь бесплатно
    Огонь скачать торрент в хорошем качестве
    Огонь смотреть онлайн бесплатно в хорошем качестве


    Вы не можете начинать темы
    Вы не можете отвечать на сообщения
    Вы не можете редактировать свои сообщения
    Вы не можете удалять свои сообщения
    Вы не можете голосовать в опросах
    Вы не можете прикреплять файлы к сообщениям
    Вы можете скачивать файлы