Anonymous, доброе утро, присоединяйтесь к нам в Telegram!, здесь всегда актуальный адрес сайта, оперативная поддержка и многое другое!

>

5.5

iTunes

7.4

iTunes

7.9

iTunes

1

7.7

1 сезон

6.8

iTunes

7.3

1 сезон

13

6.7

1 сезон

8.3

RePack

30

ULTIMATE

pack

9.9

Лицензия

ВАЖНО

ИГРА 18+

pack

7.3

RePack

MK11

7.7

RePack

jed

7.8

RePack

fifa19

8.5

RePack

RDR2

RePack

NEED FOR SPEED™ PAYBACK

4 сезон

9 сезон

Бесстыжие 9 сезон

Все сериалы

все сериалы на PB.wtf

RePack

FAR CRY 5

Anonymous, доброе утро, мы катастрофически не успеваем собрать деньги на оплату серверов, помогите нам пожалуйста 5,10,15р., для нас важна любая помощь . В качестве благодарности мы отключим Вам всю рекламу на сайте (укажите свой ник в строку Ваше имя)!

×
  
Magnet ссылка

На дальних рубежах (Максим Дашкин) [2021, Драма, WEB-DLRip-AVC] [iTunes] kino.freetor.icu

На дальних рубежах через торрент kino.freetor.icu

Раздают: 1 [ 0 KB/s ]
Размер: 744 MB | Добавлен: 3 мес. 18 д. назад | Торрент скачан:28 раз
Смотреть онлайн На дальних рубежах | Скачать    Ребята, помогите собрать деньги на оплату серверов!!!

07-07-2021 10:09 На дальних рубежах Скачать торрент  

На дальних рубежах
Год выпуска: 2021
Страна: скриншот   Россия
Студия: «Републик», «Соль», «Виктория Фильмс», «Мозаик Фильмс»
Жанр: Драма
Продолжительность: 01:20:10
Перевод: Не требуется | iTunes
Субтитры: отсутствуют

Режиссер: Максим Дашкин

rating

В ролях: Виктория Толстоганова, Сергей Шнырёв, Александр Кудин

Описание: Российская военная база, Кыргызстан. Мария, жена заместителя командира базы, хочет вырваться из этого тесного мира и с нетерпением ждёт перевода мужа обратно в Россию. У неё завязываются отношения с сослуживцем мужа, капитаном Крайновым, который тренирует её сына в секции дзюдо. Стремительное развитие их романа трагически и необратимо меняет жизнь Марии и её семьи.

Качество: WEB-DLRip-AVC
Формат: MKV

Видео: 720x302 (2.40:1), 24 fps, MPEG-4 AVC ~ 1105 Kbps avg, 0.212 bit/pixel
Аудио: AC3, 48 kHz, 2 ch, ~192.00 kbps avg | русский | iTunes
скриншот  скриншот  скриншот  скриншот  скриншот  

x264 [info]: frame I:681 Avg QP:12.66 size: 43303
x264 [info]: frame P:25137 Avg QP:15.71 size: 12785
x264 [info]: frame B:89642 Avg QP:16.69 size: 3489
x264 [info]: consecutive B-frames: 2.4% 3.1% 9.8% 14.6% 12.0% 45.6% 5.0% 2.5% 1.6% 0.9% 1.0% 1.6%
x264 [info]: mb I I16..4: 11.9% 52.5% 35.5%
x264 [info]: mb P I16..4: 1.0% 10.0% 2.6% P16..4: 30.0% 32.4% 17.4% 0.0% 0.0% skip: 6.5%
x264 [info]: mb B I16..4: 0.2% 1.2% 0.3% B16..8: 27.2% 21.7% 5.3% direct: 6.8% skip:37.4% L0:40.6% L1:39.1% BI:20.3%
x264 [info]: 8x8 transform intra:70.3% inter:40.5%
x264 [info]: direct mvs spatial:98.8% temporal:1.2%
x264 [info]: coded y,uvDC,uvAC intra: 83.3% 89.8% 80.0% inter: 21.0% 20.1% 13.5%
x264 [info]: i16 v,h,dc,p: 39% 15% 12% 34%
x264 [info]: i8 v,h,dc,ddl,ddr,vr,hd,vl,hu: 14% 12% 17% 7% 8% 9% 9% 10% 12%
x264 [info]: i4 v,h,dc,ddl,ddr,vr,hd,vl,hu: 16% 12% 15% 7% 11% 11% 10% 9% 10%
x264 [info]: i8c dc,h,v,p: 48% 24% 17% 11%
x264 [info]: Weighted P-Frames: Y:2.6% UV:0.3%
x264 [info]: ref P L0: 51.4% 10.3% 13.3% 5.8% 4.4% 3.6% 3.0% 1.9% 1.7% 1.6% 1.5% 1.6% 0.1% 0.0%
x264 [info]: ref B L0: 75.4% 10.0% 4.8% 2.4% 2.1% 1.6% 1.2% 0.8% 0.8% 0.6% 0.2%
x264 [info]: ref B L1: 94.4% 5.6%
x264 [info]: kb/s:1103.54

encoded 115460 frames, 85.62 fps, 1103.54 kb/s
**********************************************

Общее
Уникальный идентификатор : 199706013831710858760964830295788801086 (0x963DFAAD96FE0171E4C4FF3ABC26CC3E)
Полное имя : Na.Dalnikh.Rubezhakh.2020.WEB-DLRip.744Mb.DD2.0.x264.MegaPeer.mkv
Формат : Matroska
Версия формата : Version 4
Размер файла : 744 Мбайт
Продолжительность : 1 ч. 20 м.
Общий поток : 1 297 Кбит/сек
Название фильма : На дальних рубежах (2020) от MegaPeer
Дата кодирования : UTC 2021-07-07 09:38:25
Программа кодирования : mkvmerge v47.0.0 ('Black Flag') 64-bit
Библиотека кодирования : libebml v1.3.10 + libmatroska v1.5.2
Обложка : Yes
Attachments : cover.jpg

Видео
Идентификатор : 1
Формат : AVC
Формат/Информация : Advanced Video Codec
Профиль формата : High@L4.1
Настройки формата : CABAC / 12 Ref Frames
Параметр CABAC формата : Да
Параметр RefFrames формата : 12 кадров
Идентификатор кодека : V_MPEG4/ISO/AVC
Продолжительность : 1 ч. 20 м.
Битрейт : 1 105 Кбит/сек
Ширина : 720 пикселей
Высота : 302 пикселя
Соотношение сторон : 2,40:1
Режим частоты кадров : Постоянный
Частота кадров : 24,000 кадра/сек
Цветовое пространство : YUV
Субдискретизация насыщенности : 4:2:0
Битовая глубина : 8 бит
Тип развёртки : Прогрессивная
Бит/(Пиксели*Кадры) : 0.212
Размер потока : 633 Мбайт (85%)
Заголовок : stillet@MegaPeer
Библиотека кодирования : x264 core 161 r3018 db0d417
Настройки программы : cabac=1 / ref=12 / deblock=1:-3:-3 / analyse=0x3:0x113 / me=umh / subme=11 / psy=1 / psy_rd=1.03:0.03 / mixed_ref=1 / me_range=48 / chroma_me=1 / trellis=2 / 8x8dct=1 / cqm=0 / deadzone=21,11 / fast_pskip=0 / chroma_qp_offset=-3 / threads=9 / lookahead_threads=2 / sliced_threads=0 / nr=0 / decimate=0 / interlaced=0 / bluray_compat=0 / constrained_intra=0 / bframes=11 / b_pyramid=2 / b_adapt=2 / b_bias=0 / direct=3 / weightb=1 / open_gop=0 / weightp=2 / keyint=240 / keyint_min=24 / scenecut=40 / intra_refresh=0 / rc_lookahead=40 / rc=2pass / mbtree=0 / bitrate=1105 / ratetol=1.0 / qcomp=0.60 / qpmin=0 / qpmax=69 / qpstep=4 / cplxblur=20.0 / qblur=0.5 / vbv_maxrate=50000 / vbv_bufsize=62500 / nal_hrd=none / filler=0 / ip_ratio=1.40 / pb_ratio=1.30 / aq=1:1.10
Язык : Russian
Default : Да
Forced : Нет

Аудио
Идентификатор : 2
Формат : AC-3
Формат/Информация : Audio Coding 3
Коммерческое название : Dolby Digital
Идентификатор кодека : A_AC3
Продолжительность : 1 ч. 20 м.
Вид битрейта : Постоянный
Битрейт : 192 Кбит/сек
Каналы : 2 канала
Channel layout : L R
Частота : 48,0 КГц
Частота кадров : 31,250 кадров/сек (1536 SPF)
Метод сжатия : С потерями
Размер потока : 110 Мбайт (15%)
Заголовок : iTunes
Язык : Russian
Service kind : Complete Main
Default : Да
Forced : Нет

Меню
00:00:00.000 : Глава 1
00:06:20.666 : Глава 2
00:13:53.457 : Глава 3
00:18:16.998 : Глава 4
00:25:34.081 : Глава 5
00:30:10.247 : Глава 6
00:36:38.622 : Глава 7
00:42:23.830 : Глава 8
00:46:52.871 : Глава 9
00:54:04.412 : Глава 10
00:59:22.203 : Глава 11
01:04:30.161 : Глава 12
01:07:39.536 : Глава 13
01:14:11.869 : Глава 14

kino.freetor.icu



Скачать На дальних рубежах через торрент https://i115.fastpic.ru/big/2021/0707/f2/ce90a53a7e23e6cf744113a24e19cbf2.jpg Скачать, смотреть онлайн На дальних рубежах бесплантно в хорошем качестве Описание: Российская военная база, Кыргызстан. Мария, жена заместителя командира базы, хочет вырваться из этого тесного мира и с ... 10 10 7
Торрент: Зарегистрирован [2021-07-07 10:09] · скачан: 28 раз
Статус: √ проверено
Размер: 744 MB
Как cкачать? Как скачать На дальних рубежах через торрент | UTorrent

% Раздел Тема Автор DL S | L
Наши новые фильмы 2020 - 2021 [ 744 MB ] На дальних рубежах [2021 WEB-DLRip] bober100 Скачать
3 | 0
Наши новые фильмы 2020 - 2021 [ 1.45 GB ] На дальних рубежах [2020 WEB-DLRip-AVC] RUS от MediaBit Lithuania Скачать
2 | 0
Наши новые фильмы 2020 - 2021 [ 1.37 GB ] На дальних рубежах [2021 WEB-DLRip] bober100 Скачать
2 | 0
Наши фильмы (HD, WEB-DL 720p, 1080p) [ 3.08 GB ] На дальних рубежах [2021 WEB-DL 1080p] bober100 Скачать
2 | 0

28-11-2019 20:33  

Отключить всю рекламу на сайте

    Дорогой пользователь! Огромная просьба, поблагодарите релизера, оцените раздачу и оставьте свои комментарий, если Вы скачали На дальних рубежах через торрент бесплатно!
    Комментировать посты могут только пользователи прошедшие не сложную регистрацию
    Показать сообщения:    

    На дальних рубежах через торрент
    Скачать бесплатно На дальних рубежах
    На дальних рубежах скачать торрент
    На дальних рубежах смотреть онлайн
    Cкачать фильм На дальних рубежах бесплатно
    На дальних рубежах скачать торрент в хорошем качестве
    На дальних рубежах смотреть онлайн бесплатно в хорошем качестве


    Вы не можете начинать темы
    Вы не можете отвечать на сообщения
    Вы не можете редактировать свои сообщения
    Вы не можете удалять свои сообщения
    Вы не можете голосовать в опросах
    Вы не можете прикреплять файлы к сообщениям
    Вы можете скачивать файлы