Anonymous, добрый день, присоединяйтесь к нам в Telegram!, здесь всегда актуальный адрес сайта, оперативная поддержка и многое другое!

>

5.6

iTunes

7.4

iTunes

7.9

MVO

1

7.7

1 сезон

6.8

iTunes

7.3

1 сезон

13

6.7

1 сезон

8.3

RePack

30

ULTIMATE

pack

9.9

Лицензия

ВАЖНО

ИГРА 18+

pack

7.3

RePack

MK11

7.7

RePack

jed

7.8

RePack

fifa19

8.5

RePack

RDR2

RePack

NEED FOR SPEED™ PAYBACK

4 сезон

9 сезон

Бесстыжие 9 сезон

Все сериалы

все сериалы на PB.wtf

RePack

FAR CRY 5

Anonymous, добрый день, мы катастрофически не успеваем собрать деньги на оплату серверов, помогите нам пожалуйста 5,10,15р., для нас важна любая помощь . В качестве благодарности мы отключим Вам всю рекламу на сайте (укажите свой ник в строку Ваше имя)!

×
  
Magnet ссылка

Трое (Анна Меликян) [2020 г., драма, мелодрама, WEB-DLRip, Не требуется Русский "iTunes"] kino.freetor.icu

Трое через торрент kino.freetor.icu

Раздают: 4 [ 0 KB/s ]
Размер: 766 MB | Добавлен: 2 мес. 22 д. назад | Торрент скачан:38 раз
Смотреть онлайн Трое | Скачать    Ребята, помогите собрать деньги на оплату серверов!!!

31-07-2021 18:32 Трое Скачать торрент  

Трое
Год выпуска: 2020
Страна: Россия / Фонд развития современного кинематографа «КИНОПРАЙМ», Кинокомпания «Магнум», Метрафильмс, TRUEMEN Pictures
Жанр: драма, мелодрама
Продолжительность: 02:02:01
Перевод: Не требуется Русский (iTunes)

Режиссер: Анна Меликян



В ролях: Константин Хабенский, Виктория Исакова, Юлия Пересильд, Александр Незлобин, Варвара Шмыкова, Антон Евтюхов, Михаил Стародубов, Сергей Набиев, Валентин Валл, Анастасия Имамова

Описание: Московский психолог, автор мотивационных роликов Злата считает, что у них с Сашей прекрасный брак, который помог им обоим реализовать себя и подарил десять лет образцовой совместной жизни — для полноценного счастья не хватает только ребенка. Саша же, видимо, считает иначе, потому что втайне от жены он встречается с другой женщиной. Ее зовут Вероника, она живет в Петербурге, проводит экскурсии и увлекается поэзией. Вероника помогла Саше выбраться из воды, когда он попытался утопиться с увесистой телепремией на шее. Успешный шоумен-комик, безропотный муж, нежный влюбленный, — он разрывается между несколькими ролями, между двумя столицами, между очень разными женщинами. Но всегда ли возможно сделать выбор?

Качество: WEB-DLRip
Формат: AVI
Видео кодек: DivX
Аудио кодек: MP3
Видео: 640x480 (1.33:1), 25 fps, DivX Codec 4.x ~739 kbps avg, 0.10 bit/pixel
Аудио: Audio: 48 kHz, MPEG Layer 3, 2 ch, ~128.00 kbps avg








Общее
Полное имя : G:\ФИЛЬМЫ\Трое.2O2O.WEB-DLRip.avi
Формат : AVI
Формат/Информация : Audio Video Interleave
Размер файла : 766 Мбайт
Продолжительность : 2 ч. 2 м.
Общий поток : 877 Кбит/сек
Программа кодирования : VirtualDubMod 1.5.10.3 | www.virtualdub-fr.org || (build 2550/release)
Библиотека кодирования : VirtualDubMod build 2550/release

Видео
Идентификатор : 0
Формат : MPEG-4 Visual
Профиль формата : Advanced Simple@L5
Настройки формата : BVOP2
Параметр BVOP формата : 2
Параметр QPel формата : Нет
Параметр GMC формата : Без точки перехода
Параметр матрицы формата : Default (MPEG)
Идентификатор кодека : DIVX
Идентификатор кодека/Информация : Project Mayo
Идентификатор кодека/Подсказка : DivX 4
Продолжительность : 2 ч. 2 м.
Битрейт : 740 Кбит/сек
Ширина : 640 пикселей
Высота : 480 пикселей
Соотношение сторон : 4:3
Частота кадров : 25,000 кадров/сек
Цветовое пространство : YUV
Субдискретизация насыщенности : 4:2:0
Битовая глубина : 8 бит
Тип развёртки : Прогрессивная
Метод сжатия : С потерями
Бит/(Пиксели*Кадры) : 0.096
Размер потока : 645 Мбайт (84%)
Библиотека кодирования : XviD 1.2.1 (UTC 2008-12-04)

Аудио
Идентификатор : 1
Формат : MPEG Audio
Версия формата : Version 1
Профиль формата : Layer 3
Настройки формата : Joint stereo / MS Stereo
Идентификатор кодека : 55
Идентификатор кодека/Подсказка : MP3
Продолжительность : 2 ч. 2 м.
Вид битрейта : Постоянный
Битрейт : 128 Кбит/сек
Каналы : 2 канала
Частота : 48,0 КГц
Частота кадров : 41,667 кадра/сек (1152 SPF)
Метод сжатия : С потерями
Размер потока : 112 Мбайт (15%)
Выравнивание : Соединение по промежуткам
Продолжительность промежутка : 40 мс. (1,00 видеокадр)
Время предзагрузки промежутка : 504 мс.
Библиотека кодирования : LAME3.99r
Настройки программы : -m j -V 4 -q 2 -lowpass 17 -b 128

Report created by : MediaInfoLib - v21.03
Report created on : UTC 2021-07-31 18:25:49

kino.freetor.icu



Скачать Трое через торрент https://pic1.kartinco.top/new/img/2021-07/31/2gyohpvptzh5ob13ckaz4adq7.jpg Скачать, смотреть онлайн Трое бесплантно в хорошем качестве Описание: Московский психолог, автор мотивационных роликов Злата считает, что у них с Сашей прекрасный брак, который помог им обоим ... 10 10 3
Торрент: Зарегистрирован [2021-07-31 18:32] · скачан: 38 раз
Статус: √ проверено
Размер: 766 MB
Как cкачать? Как скачать Трое через торрент | UTorrent

% Раздел Тема Автор DL S | L
Фильмы 2009 [ 1.45 GB ] Святые из бундока 2: День всех святых / The Boondock Saints II: All Saints Day [2009 BDRip-AVC MVO] stalonе Скачать
1 | 0
Детские обучающие игры [ 578 MB ] Трое из Простоквашино: Летние каникулы [RepackRUAkella] Shmel Скачать
2 | 0
Фильмы (WEB-DL 720p, 1080p) [ 8.55 GB ] Троя - Режиссёрская версия / Troy - Director's Cut [2004 история HDTV] L_E_X Скачать
1 | 0
Фильмы 2001-2005 [ 1.28 GB ] Трое в каноэ / Without a Paddle [2004 HDRip] m9sо Скачать
1 | 0
Discovery [ 6.1 GB ] Discovery. Как устроена Вселенная / Discovery.How the Universe Works [2010 документальныйDVDRip ] rt1 Скачать
1 | 0
Наши мультфильмы [ 695 MB ] Трое из Простоквашино / Трое из Простоквашино [1978 мультфильм короткометражка DVDRip][3 серии из 3] .::}{0TT@БЬ)Ч::. Скачать
1 | 0
Фантастика [ 1.67 GB ] Стивен Кинг - Темная Башня II - Извлечение троих [Роман Волков 2009] IceSead Скачать
1 | 0

28-11-2019 20:33  

Отключить всю рекламу на сайте

    Дорогой пользователь! Огромная просьба, поблагодарите релизера, оцените раздачу и оставьте свои комментарий, если Вы скачали Трое через торрент бесплатно!
    Комментировать посты могут только пользователи прошедшие не сложную регистрацию
    Показать сообщения:    

    Трое через торрент
    Скачать бесплатно Трое
    Трое скачать торрент
    Трое смотреть онлайн
    Cкачать фильм Трое бесплатно
    Трое скачать торрент в хорошем качестве
    Трое смотреть онлайн бесплатно в хорошем качестве


    Вы не можете начинать темы
    Вы не можете отвечать на сообщения
    Вы не можете редактировать свои сообщения
    Вы не можете удалять свои сообщения
    Вы не можете голосовать в опросах
    Вы не можете прикреплять файлы к сообщениям
    Вы можете скачивать файлы