Anonymous, доброе утро, присоединяйтесь к нам в Telegram!, здесь всегда актуальный адрес сайта, оперативная поддержка и многое другое!

>

5.5

iTunes

7.4

iTunes

7.9

iTunes

1

7.7

1 сезон

6.8

iTunes

7.3

1 сезон

13

6.7

1 сезон

8.3

RePack

30

ULTIMATE

pack

9.9

Лицензия

ВАЖНО

ИГРА 18+

pack

7.3

RePack

MK11

7.7

RePack

jed

7.8

RePack

fifa19

8.5

RePack

RDR2

RePack

NEED FOR SPEED™ PAYBACK

4 сезон

9 сезон

Бесстыжие 9 сезон

Все сериалы

все сериалы на PB.wtf

RePack

FAR CRY 5

Anonymous, доброе утро, мы катастрофически не успеваем собрать деньги на оплату серверов, помогите нам пожалуйста 5,10,15р., для нас важна любая помощь . В качестве благодарности мы отключим Вам всю рекламу на сайте (укажите свой ник в строку Ваше имя)!

×
  
Magnet ссылка

Шугалей 3 (Михаил Вассербаум) [2021, Боевик, приключения, HDTVRip] kino.freetor.icu

Шугалей 3 через торрент kino.freetor.icu

Раздают: 9 [ 0.2 KB/s ]
Размер: 1.37 GB | Добавлен: 1 мес. 19 д. назад | Торрент скачан:266 раз
Смотреть онлайн Шугалей 3 | Скачать    Ребята, помогите собрать деньги на оплату серверов!!!

07-09-2021 01:07 Шугалей 3 Скачать торрент  

Шугалей 3
Год выпуска: 2021
Страна: Россия, Тунис
Выпущено: Производство ООО "Кино альянс", ООО "Дурум"
Жанр: Боевик, приключения
Продолжительность: 01:32:25
Перевод: Не требуется
Субтитры: отсутствуют

Режиссер: Михаил Вассербаум



В ролях: Кирилл Полухин, Олег Абалян, Алексей Кравченко, Евгений Терских, Владимир Петров (VIII), Екатерина Решетникова, Самвел Мужикян, Дмитрий Сутырин, Сергей Яценюк, Максим Шугалей, Виталий Такс, Николай Иванов (VII), Федор Смольянинов, Михаил Богданов, Алексей Удальцов, Станислав Концевич, Радик Галиуллин, Татьяна Буланова, Роман Притула

Описание: Максим Шугалей и Самер Суэйфан после долгого плена в ливийской тюрьме "Митига" наконец-то возвращаются в Россию. Несколько месяцев спустя на Шугалея выходит бывший управляющий банка в Триполи Фарид и предлагает встретиться в Египте — у него появилась новая информация о террористах в Ливии. Но встреча друзей в Каире так и не состоится. Чтобы помочь Фариду избежать собственной судьбы, Максиму придется на время отложить свои планы…

Качество: HDTVRip
Формат: AVI

Видео: XviD, ~ 1922 Кбит/с, 720x304, 25 кадр/с
Аудио#: 48.0 kHz, AC3 Dolby Digital, 2/0 (L,R) ch, ~ 192 kbps
скриншот  скриншот  скриншот  скриншот  скриншот  

General
Complete name : C:Шугалей.s03.(2021).HDTVRip.by.Nicodem.Files-x.avi
Format : AVI
Format/Info : Audio Video Interleave
File size : 1.37 GiB
Duration : 1h 32mn
Overall bit rate : 2 124 Kbps
Writing application : VirtualDubMod 1.5.10.3 | www.virtualdub-fr.org || (build 2550/release)
Writing library : VirtualDubMod build 2550/release

Video
ID : 0
Format : MPEG-4 Visual
Format profile : Advanced Simple@L5
Format settings, BVOP : 1
Format settings, QPel : No
Format settings, GMC : No warppoints
Format settings, Matrix : Custom
Codec ID : XVID
Codec ID/Hint : XviD
Duration : 1h 32mn
Bit rate : 1 922 Kbps
Width : 720 pixels
Height : 304 pixels
Display aspect ratio : 2.35:1
Frame rate : 25.000 fps
Color space : YUV
Chroma subsampling : 4:2:0
Bit depth : 8 bits
Scan type : Progressive
Compression mode : Lossy
Bits/(Pixel*Frame) : 0.351
Stream size : 1.24 GiB (91%)
Writing library : XviD 73

Audio
ID : 1
Format : AC-3
Format/Info : Audio Coding 3
Mode extension : CM (complete main)
Codec ID : 2000
Duration : 1h 32mn
Bit rate mode : Constant
Bit rate : 192 Kbps
Channel(s) : 2 channels
Channel positions : Front: L R
Sampling rate : 48.0 KHz
Bit depth : 16 bits
Compression mode : Lossy
Stream size : 127 MiB (9%)
Alignment : Split accross interleaves
Interleave, duration : 40 ms (1.00 video frame)
Interleave, preload duration : 500 ms

kino.freetor.icu



Скачать Шугалей 3 через торрент https://i3.imageban.ru/out/2021/09/04/b433b837abc4a4cd50f9bcca33f4d6ab.jpg Скачать, смотреть онлайн Шугалей 3 бесплантно в хорошем качестве Описание: Максим Шугалей и Самер Суэйфан после долгого плена в ливийской тюрьме "Митига" наконец-то возвращаются в Россию. Несколько ... 8.6 10 13
Торрент: Зарегистрирован [2021-09-07 01:07] · скачан: 266 раз
Статус: √ проверено
Размер: 1.37 GB
Как cкачать? Как скачать Шугалей 3 через торрент | UTorrent

% Раздел Тема Автор DL S | L
Наши новые фильмы 2020 - 2021 [ 719 MB ] Шугалей 3 [2021 WEB-DLRip Русский] coc900 Скачать
2 | 0
Наши фильмы (HD, WEB-DL 720p, 1080p) [ 4.21 GB ] Шугалей 3 [2021 HDTV 1080i] bober100 Скачать
7 | 0

28-11-2019 20:33  

Отключить всю рекламу на сайте

    Дорогой пользователь! Огромная просьба, поблагодарите релизера, оцените раздачу и оставьте свои комментарий, если Вы скачали Шугалей 3 через торрент бесплатно!
    Комментировать посты могут только пользователи прошедшие не сложную регистрацию
    Показать сообщения:    

    Шугалей 3 через торрент
    Скачать бесплатно Шугалей 3
    Шугалей 3 скачать торрент
    Шугалей 3 смотреть онлайн
    Cкачать фильм Шугалей 3 бесплатно
    Шугалей 3 скачать торрент в хорошем качестве
    Шугалей 3 смотреть онлайн бесплатно в хорошем качестве


    Вы не можете начинать темы
    Вы не можете отвечать на сообщения
    Вы не можете редактировать свои сообщения
    Вы не можете удалять свои сообщения
    Вы не можете голосовать в опросах
    Вы не можете прикреплять файлы к сообщениям
    Вы можете скачивать файлы