Anonymous, доброе утро, присоединяйтесь к нам в Telegram!, здесь всегда актуальный адрес сайта, оперативная поддержка и многое другое!

>

5.5

iTunes

7.4

iTunes

7.9

iTunes

1

7.7

1 сезон

6.8

iTunes

7.3

1 сезон

13

6.7

1 сезон

8.3

RePack

30

ULTIMATE

pack

9.9

Лицензия

ВАЖНО

ИГРА 18+

pack

7.3

RePack

MK11

7.7

RePack

jed

7.8

RePack

fifa19

8.5

RePack

RDR2

RePack

NEED FOR SPEED™ PAYBACK

4 сезон

9 сезон

Бесстыжие 9 сезон

Все сериалы

все сериалы на PB.wtf

RePack

FAR CRY 5

Anonymous, доброе утро, мы катастрофически не успеваем собрать деньги на оплату серверов, помогите нам пожалуйста 5,10,15р., для нас важна любая помощь . В качестве благодарности мы отключим Вам всю рекламу на сайте (укажите свой ник в строку Ваше имя)!

×
  
Magnet ссылка

Шугалей 3 (Михаил Вассербаум) [2021 г., боевик, приключения, WEB-DLRip, Не требуется Русский] kino.freetor.icu

Шугалей 3 через торрент kino.freetor.icu

Раздают: 1 [ 0 KB/s ]
Размер: 719 MB | Добавлен: 1 мес. 5 д. назад | Торрент скачан:18 раз
Смотреть онлайн Шугалей 3 | Скачать    Ребята, помогите собрать деньги на оплату серверов!!!

20-09-2021 18:27 Шугалей 3 Скачать торрент  

Шугалей 3
Год выпуска: 2021
Страна: Россия / Кино альянс
Жанр: боевик, приключения
Продолжительность: 01:32:33
Перевод: Не требуется Русский (iTunes)
«Любовь к родине сильнее смерти»

Режиссер: Михаил Вассербаум



В ролях: Кирилл Полухин, Олег Абалян, Алексей Кравченко, Евгений Терских, Владимир Петров, Михаил Богданов, Алексей Удальцов, Сергей Яценюк, Самвел Мужикян, Екатерина Решетникова

Описание: Максим Шугалей и Самер Суэйфан после долгого плена в ливийской тюрьме «Митига» наконец-то возвращаются в Россию. Несколько месяцев спустя на Шугалея выходит бывший управляющий банка в Триполи Фарид и предлагает встретиться в Египте — у него появилась новая информация о террористах в Ливии. Но встреча друзей в Каире так и не состоится. Чтобы помочь Фариду избежать собственной судьбы, Максиму придется на время отложить свои планы…

Качество: WEB-DLRip
Формат: AVI
Видео кодек: DivX
Аудио кодек: MP3
Видео: 640x272 (2.35:1), 25 fps, DivX Codec 4.x ~948 kbps avg, 0.22 bit/pixel
Аудио: 48 kHz, MPEG Layer 3, 2 ch, ~128.00 kbps avg

Общее
Полное имя : G:\ФИЛЬМЫ\Шугалей 3.2021.WEB-DLRip.avi
Формат : AVI
Формат/Информация : Audio Video Interleave
Размер файла : 719 Мбайт
Продолжительность : 1 ч. 32 м.
Общий поток : 1 086 Кбит/сек
Программа кодирования : VirtualDubMod 1.5.10.3 | www.virtualdub-fr.org || (build 2550/release)
Библиотека кодирования : VirtualDubMod build 2550/release

Видео
Идентификатор : 0
Формат : MPEG-4 Visual
Профиль формата : Advanced Simple@L5
Настройки формата : BVOP2
Параметр BVOP формата : 2
Параметр QPel формата : Нет
Параметр GMC формата : Без точки перехода
Параметр матрицы формата : Default (MPEG)
Идентификатор кодека : DIVX
Идентификатор кодека/Информация : Project Mayo
Идентификатор кодека/Подсказка : DivX 4
Продолжительность : 1 ч. 32 м.
Битрейт : 949 Кбит/сек
Ширина : 640 пикселей
Высота : 272 пикселя
Соотношение сторон : 2,35:1
Частота кадров : 25,000 кадров/сек
Цветовое пространство : YUV
Субдискретизация насыщенности : 4:2:0
Битовая глубина : 8 бит
Тип развёртки : Прогрессивная
Метод сжатия : С потерями
Бит/(Пиксели*Кадры) : 0.218
Размер потока : 628 Мбайт (87%)
Библиотека кодирования : XviD 1.2.1 (UTC 2008-12-04)

Аудио
Идентификатор : 1
Формат : MPEG Audio
Версия формата : Version 1
Профиль формата : Layer 3
Настройки формата : Joint stereo / MS Stereo
Идентификатор кодека : 55
Идентификатор кодека/Подсказка : MP3
Продолжительность : 1 ч. 32 м.
Вид битрейта : Постоянный
Битрейт : 128 Кбит/сек
Каналы : 2 канала
Частота : 48,0 КГц
Частота кадров : 41,667 кадра/сек (1152 SPF)
Метод сжатия : С потерями
Размер потока : 84,7 Мбайт (12%)
Выравнивание : Соединение по промежуткам
Продолжительность промежутка : 40 мс. (1,00 видеокадр)
Время предзагрузки промежутка : 504 мс.
Библиотека кодирования : LAME3.99r
Настройки программы : -m j -V 4 -q 2 -lowpass 17 -b 128

Report created by : MediaInfoLib - v21.09
Report created on : UTC 2021-09-20 18:13:15

kino.freetor.icu



Скачать Шугалей 3 через торрент https://pic1.kartinco.top/new/img/2021-09/20/oup0d1a89qeja8afm8p1ackva.jpg Скачать, смотреть онлайн Шугалей 3 бесплантно в хорошем качестве Описание: Максим Шугалей и Самер Суэйфан после долгого плена в ливийской тюрьме «Митига» наконец-то возвращаются в Россию. Несколько ... 8.7 10 7
Торрент: Зарегистрирован [2021-09-20 18:27] · скачан: 18 раз
Статус: √ проверено
Размер: 719 MB
Как cкачать? Как скачать Шугалей 3 через торрент | UTorrent

% Раздел Тема Автор DL S | L
Наши фильмы (HD, WEB-DL 720p, 1080p) [ 4.21 GB ] Шугалей 3 [2021 HDTV 1080i] bober100 Скачать
7 | 0
Наши новые фильмы 2020 - 2021 [ 1.37 GB ] Шугалей 3 [2021 HDTVRip] bober100 Скачать
10 | 0

28-11-2019 20:33  

Отключить всю рекламу на сайте

    Дорогой пользователь! Огромная просьба, поблагодарите релизера, оцените раздачу и оставьте свои комментарий, если Вы скачали Шугалей 3 через торрент бесплатно!
    Комментировать посты могут только пользователи прошедшие не сложную регистрацию
    Показать сообщения:    

    Шугалей 3 через торрент
    Скачать бесплатно Шугалей 3
    Шугалей 3 скачать торрент
    Шугалей 3 смотреть онлайн
    Cкачать фильм Шугалей 3 бесплатно
    Шугалей 3 скачать торрент в хорошем качестве
    Шугалей 3 смотреть онлайн бесплатно в хорошем качестве


    Вы не можете начинать темы
    Вы не можете отвечать на сообщения
    Вы не можете редактировать свои сообщения
    Вы не можете удалять свои сообщения
    Вы не можете голосовать в опросах
    Вы не можете прикреплять файлы к сообщениям
    Вы можете скачивать файлы