Всегда рабочее зеркало без VPN и Proxy просто перед .vidak.icu напиши любое слово или цифру, Пример http://76yu.vidak.icu

MVO

Лицензия

1 сезон

1

1 сезон

iTunes

1 сезон

13

1 сезон

Deluxe

pack

Рекомендуем

Пиратка

30

ВАЖНО

RePack

MK11

RePack

jed

RePack

fifa19

RePack

RDR2

RePack

NEED FOR SPEED™ PAYBACK

Кинопоиск HD

6 сезон

 Острые козырьки 6 сезон

Все сериалы

все сериалы на PB.wtf

RePack

FAR CRY 5
  
Magnet ссылка

Зверопой 2 / Sing 2 (Гарт Дженнингс, Кристоф Лурделе) [2021 г., Комедия, Фэнтези, Семейный, Приключения, Музыкальный, WEB-DLRip 720p / 60 FPS] MVO [Jaskier] от R.G. HD-Films kino.freetor.icu

Зверопой 2 через торрент kino.freetor.icu

Раздают: 1 [ 0 KB/s ]
Размер: 4.71 GB | Добавлен: 5 мес. 14 д. назад | Торрент скачан:435 раз
Смотреть онлайн Зверопой 2 | Скачать    Ребята, помогите собрать деньги на оплату серверов!!!

19-01-2022 15:35 Зверопой 2 Скачать торрент  

Зверопой 2 / Sing 2
Год выпуска: 2021
Страна: США, Япония, Франция
Жанр: Комедия, Фэнтези, Семейный, Приключения, Музыкальный
Продолжительность: 01:49:41
Перевод: Профессиональный (многоголосый) - Jaskier
Субтитры: English

Режиссер: Гарт Дженнингс, Кристоф Лурделе

Премьера в мире: 14 ноября 2021

rating

В ролях: Тори Келли, Риз Уизерспун, Тэрон Эджертон, Ник Кролл, Мэттью МакКонахи, Сет МакФарлейн, Гарт Дженнингс, Дженнифер Сондерс, Челси Перетти, Скарлетт Йоханссон, Бобби Каннавале, Ник Офферман, Адам Бакстон, Эрик Андре, Холзи

Описание: Тяжело быть продюсером, когда ты коала и у тебя лапки. Еще сложнее, когда твоя верная помощница древнее печатной машинки. И совсем весело, когда твоя труппа — это танцующий без остановки пухляш, колючая девочка-панк, застенчивая школьница, верзила-гангстер и многодетная мама, чьи дети — поросята в прямом смысле слова. Рецепт успеха прост — рвануть в мировую столицу развлечений, завербовать легендарного рок-музыканта и взорвать сцену новым шоу.

Качество: WEB-DLRip 720p / 60 FPS
Формат: MKV
Видео кодек: H.264
Аудио кодек: AC3
Видео: x264, 1280 x 688 ( 1,85:1 ), 5755 kbps, 60,000 fps, ( 0.109 bpp)
Аудио#1: Русский, AC-3, 48.0 KHz, 6 ch, 384 Kbps MVO ( Jaskier )
Автор рипа: slaventi-69
x264 [info]: profile High, level 4.1
x264 [info]: frame I:1669 Avg QP:16.32 size:102258
x264 [info]: frame P:90621 Avg QP:17.82 size: 26563
x264 [info]: frame B:302593 Avg QP:20.59 size: 7126
x264 [info]: consecutive B-frames: 2.6% 1.4% 4.3% 23.4% 42.4% 25.9%


Общее
Уникальный идентификатор : 154182680318854415157468757950756443471 (0x73FE810C4071A3B45FAD6826382E554F)
Полное имя : G:\60 FPS\Sing_2.(2021).WEB-DL.720p.(60 Fps).mkv
Формат : Matroska
Версия формата : Version 4
Размер файла : 4,71 Гбайт
Продолжительность : 1 ч. 49 м.
Общий поток : 6139 Кбит/сек
Название фильма : Зверопой 2 / Sing 2 (2021) WEB-DL 720p (60 Fps)
Дата кодирования : UTC 2022-01-19 15:03:25
Программа кодирования : mkvmerge v25.0.0 ('Prog Noir') 64-bit
Библиотека кодирования : libebml v1.3.6 + libmatroska v1.4.9

Видео
Идентификатор : 1
Формат : AVC
Формат/Информация : Advanced Video Codec
Профиль формата : High@L4.1
Настройки формата : CABAC / 9 Ref Frames
Параметр CABAC формата : Да
Параметр RefFrames формата : 9 кадров
Идентификатор кодека : V_MPEG4/ISO/AVC
Продолжительность : 1 ч. 49 м.
Битрейт : 5755 Кбит/сек
Ширина : 1280 пикселей
Высота : 688 пикселей
Соотношение сторон : 1,85:1
Режим частоты кадров : Постоянный
Частота кадров : 60,000 кадров/сек
Цветовое пространство : YUV
Субдискретизация насыщенности : 4:2:0
Битовая глубина : 8 бит
Тип развёртки : Прогрессивная
Бит/(Пиксели*Кадры) : 0.109
Размер потока : 4,41 Гбайт (94%)
Заголовок : slaventi-69 ( R.G. HD-Films | 60 fps )
Библиотека кодирования : x264 core 130 r2273 b3065e6
Настройки программы : cabac=1 / ref=9 / deblock=1:-1:-1 / analyse=0x3:0x133 / me=umh / subme=9 / psy=1 / psy_rd=1.00:0.00 / mixed_ref=1 / me_range=30 / chroma_me=1 / trellis=2 / 8x8dct=1 / cqm=0 / deadzone=21,11 / fast_pskip=0 / chroma_qp_offset=-2 / threads=10 / lookahead_threads=2 / sliced_threads=0 / nr=0 / decimate=1 / interlaced=0 / bluray_compat=0 / constrained_intra=0 / bframes=5 / b_pyramid=2 / b_adapt=2 / b_bias=0 / direct=2 / weightb=1 / open_gop=0 / weightp=2 / keyint=600 / keyint_min=23 / scenecut=40 / intra_refresh=0 / rc=crf / mbtree=0 / crf=16.5 / qcomp=0.60 / qpmin=0 / qpmax=69 / qpstep=4 / ip_ratio=1.40 / pb_ratio=1.30 / aq=1:1.00
Язык : English
Default : Да
Forced : Нет

Аудио
Идентификатор : 2
Формат : AC-3
Формат/Информация : Audio Coding 3
Коммерческое название : Dolby Digital
Идентификатор кодека : A_AC3
Продолжительность : 1 ч. 49 м.
Вид битрейта : Постоянный
Битрейт : 384 Кбит/сек
Каналы : 6 каналов
Channel layout : L R C LFE Ls Rs
Частота : 48,0 КГц
Частота кадров : 31,250 кадров/сек (1536 SPF)
Битовая глубина : 16 бит
Метод сжатия : С потерями
Размер потока : 301 Мбайт (6%)
Заголовок : MVO ( Jaskier )
Язык : Russian
ServiceKind/String : Complete Main
Default : Да
Forced : Нет

Текст #1
Идентификатор : 3
Формат : UTF-8
Идентификатор кодека : S_TEXT/UTF8
Идентификатор кодека/Информация : UTF-8 Plain Text
Продолжительность : 1 ч. 44 м.
Битрейт : 81 бит/сек
ElementCount : 2072
Размер потока : 62,1 Кбайт (0%)
Язык : English
Default : Нет
Forced : Нет

Текст #2
Идентификатор : 4
Формат : UTF-8
Идентификатор кодека : S_TEXT/UTF8
Идентификатор кодека/Информация : UTF-8 Plain Text
Продолжительность : 1 ч. 49 м.
Битрейт : 90 бит/сек
ElementCount : 2403
Размер потока : 72,4 Кбайт (0%)
Заголовок : SDH
Язык : English
Default : Нет
Forced : Нет

Меню
00:00:00.000 : en:Chapter 01
00:07:21.733 : en:Chapter 02
00:13:17.922 : en:Chapter 03
00:18:33.113 : en:Chapter 04
00:25:16.850 : en:Chapter 05
00:30:54.979 : en:Chapter 06
00:37:15.318 : en:Chapter 07
00:43:31.111 : en:Chapter 08
00:52:19.139 : en:Chapter 09
01:02:30.000 : en:Chapter 10
01:10:30.980 : en:Chapter 11
01:17:43.038 : en:Chapter 12
01:25:00.517 : en:Chapter 13
01:30:06.906 : en:Chapter 14
01:35:43.368 : en:Chapter 15
01:41:23.208 : en:Chapter 16

Просьба к переливающим на другие сайты, в оформлении указывайте пожалуйста авторство группы R.G. HD-Films kino.freetor.icu



Скачать Зверопой 2 через торрент https://i5.imageban.ru/out/2022/01/12/103dbf05ed6a2d7531a9ccb03c3aedc1.jpg Скачать, смотреть онлайн Зверопой 2 бесплантно в хорошем качестве Описание: Тяжело быть продюсером, когда ты коала и у тебя лапки. Еще сложнее, когда твоя верная помощница древнее печатной машинки. И ... 10 10 17
Info! Золотая раздача, скачанное не засчитывается.
Торрент: Зарегистрирован [2022-01-19 15:35] · скачан: 435 раз
Статус: √ проверено
Размер: 4.71 GB
Как cкачать? Как скачать Зверопой 2 через торрент | UTorrent

28-11-2019 20:33  

Отключить всю рекламу на сайте

    Дорогой пользователь! Огромная просьба, поблагодарите релизера, оцените раздачу и оставьте свои комментарий, если Вы скачали Зверопой 2 через торрент бесплатно!
    Комментировать посты могут только пользователи прошедшие не сложную регистрацию
    Показать сообщения:    

    Зверопой 2 через торрент
    Скачать бесплатно Зверопой 2
    Зверопой 2 скачать торрент
    Зверопой 2 смотреть онлайн
    Cкачать фильм Зверопой 2 бесплатно
    Зверопой 2 скачать торрент в хорошем качестве
    Зверопой 2 смотреть онлайн бесплатно в хорошем качестве


    Вы не можете начинать темы
    Вы не можете отвечать на сообщения
    Вы не можете редактировать свои сообщения
    Вы не можете удалять свои сообщения
    Вы не можете голосовать в опросах
    Вы не можете прикреплять файлы к сообщениям
    Вы можете скачивать файлы