Лицензия

MVO

1

1 сезон

Лицензия

Лицензия

13

MVO

1 сезон

Deluxe Edition

pack

Рекомендуем

30

Repack

ВАЖНО

ВАЖНО

Ghostwire

RePack

jed

RePack

fifa19

RePack

RDR2

RePack

NEED FOR SPEED™ PAYBACK

RePack

Кинопоиск HD

 Острые козырьки 6 сезон

6 сезон

FAR CRY 6

RePack

Лицензия

MVO

1

1 сезон

1 сезон

Лицензия

  

Глухарь-3. Возвращение / Серии: 23-43 из 64 (Тимур Алпатов, Максим Аверин) [2010-2011, Детектив, DVB]

Глухарь-3. Возвращение через торрент kino.freetor.icu

Размер: 32.29 GB | Добавлен: 11 лет назад | Торрент скачан:91 раз
Смотреть онлайн Глухарь-3. Возвращение | Скачать   

02-03-2011 08:15 Глухарь-3. Возвращение Скачать торрент  

Глухарь. Возвращение (Глухарь-3) | Серии: 23-4344-я серия - 8 марта (~ в 23:10 мск).
Она будет выложена в новой раздаче!
Год выпуска: 2010
Производство: Телекомпания "Дикси-ТВ"
Страна: Россия
Жанр: криминал, детектив
Продолжительность серии: ~ 00:46:20
Перевод: Не требуется
Субтитры: Украинские (неотключаемые)

Режиссер: Тимур Алпатов, Максим Аверин, Борис Казаков
Продюссер: Ефим Любинский
Сценарий: Илья Куликов, Вячеслав Киреев, Игорь Маслов

Мировой рейтинг IMDB


В ролях: Максим Аверин, Денис Рожков, Владислав Котлярский, Виктория Тарасова, Владимир Фекленко, Мария Болтнева, Мария Рассказова, Александр Воробьёв (II), Елена Коллегова, Анжелика Кошевая, Федор Румянцев, Денис Жариков, Виктория Герасимова, Андрей Козлов, Александр Расстригин, Александр Андриенко, Ася Калинина, Алексей Лапшин, Сергей Марухин, Владимир Мельников, Янис Политов, Валерия Приходченко, Эдуард Рябинин, Наталья Самсонова

Описание: Третий сезон «Глухаря» ещё ярче и четче обрисует образы полюбившихся нам героев. Сергей Глухарев уже в звании майора занимает должность начальника следственного отдела сталкиваясь с целым рядом новых служебных проблем. Его друг Денис Антошин наоборот увязает в проблемах личных. Как всегда они могут рассчитывать только на помощь друг друга. Мы увидим развитие отношений Сергея и его начальницы Ирины Зиминой, а также Дениса и его девушки Насти. Новые шаги сделает в своей жизни и Коля Тарасов. С неожиданной стороны раскроется начальник СКМ Стас Карпов. «Глухарь 3» — это непридуманная жизнь, такая, какой ее видит каждый из нас.

Доп. информация: Запись с канала ТРК «Украина».
● Здесь выложен DVB (SATRemux) - т.е. необрезанный и не кодированный исходник (в ремуксах черные полосы не удаляются и размер файла не ужимается).
● Все файлы имеют заставку и титры (с врезанной нумерацией серий).

Качество: DVB
Формат: MPEG
Видео кодек: MPEG2
Аудио кодек: MPEG1 Layer 2
Видео: MPEG2 Video 720x576 (4:3), 25.00fps, 4 471 Kbps, 0.431 bit/pixel
Аудио: MPEG Audio 48000Hz 1ch 192 Кбит/сек
При каждом добавлении создаётся новый торрент. Чтобы начать докачку новой серии, пользователям необходимо сделать следующее:
● остановить скачивание;
● удалить старый торрент у себя из клиента (старые серии удалять не надо);
● скачать новый торрент и запустить его у себя в клиенте вместо старого, при этом указать клиенту путь в старую папку куда и должно происходить скачивание новых серий;
● ваш клиент при запуске должен произвести хеширование (проверку) старой папки (если не производит сам - помогите ему сделать это) и будет докачивать только те серии, которых у вас ещё нет. Старые серии при этом не удаляются, а продолжают раздаваться!
● Eсли вы уже удалили старые серии, то предотвратить повторную закачку старых серий можно, отжав галочку в соответсвующих местах при запуске нового торрента.
General
Complete name : E:\_NEW\Gluhar'-3_Vozvraschenie\03.Semejnyj.ochag.(SATRemux.AleMak).mpg
Format : MPEG-PS
File size : 1.51 GiB
Duration : 45mn 31s
Overall bit rate : 4 757 Kbps
Writing library : (c) 1998-2008 Womble Multimedia, Inc. / MPEG Video Wizard (12/2008) / Mar 31 2009

Video
ID : 224 (0xE0)
Format : MPEG Video
Format version : Version 2
Format profile : Main@Main
Format settings, BVOP : Yes
Format settings, Matrix : Default
Format settings, GOP : M=1, N=3
Duration : 45mn 31s
Bit rate mode : Variable
Bit rate : 4 471 Kbps
Nominal bit rate : 15.0 Mbps
Width : 720 pixels
Height : 576 pixels
Display aspect ratio : 4:3
Frame rate : 25.000 fps
Standard : PAL
Color space : YUV
Chroma subsampling : 4:2:0
Bit depth : 8 bits
Scan type : Interlaced
Scan order : Top Field First
Bits/(Pixel*Frame) : 0.431
Stream size : 1.42 GiB (94%)
Writing library : (c) 1998-2008 Womble Multimedia, Inc. / MPEG Video Wizard (12/2008) / Mar 31 2009

Audio
ID : 192 (0xC0)
Format : MPEG Audio
Format version : Version 1
Format profile : Layer 2
Duration : 45mn 31s
Bit rate mode : Constant
Bit rate : 192 Kbps
Channel(s) : 1 channel
Sampling rate : 48.0 KHz
Video delay : -80ms
Stream size : 62.5 MiB (4%)



Скачать Глухарь-3. Возвращение через торрент http://s001.radikal.ru/i196/1009/19/83f6b4dfaf3d.jpg Скачать, смотреть онлайн Глухарь-3. Возвращение бесплантно в хорошем качестве Описание: Третий сезон «Глухаря» ещё ярче и четче обрисует образы полюбившихся нам героев. Сергей Глухарев уже в звании майора занимает ... 10 10 1
Info! Золотая раздача, скачанное не засчитывается.
Торрент: Зарегистрирован [2011-03-08 18:42] · скачан: 91 раз
Статус: √ проверено
Размер: 32.29 GB
Как cкачать? Как скачать Глухарь-3. Возвращение через торрент | UTorrent

% Раздел Тема Автор DL S | L
Наши сериалы [ 34.08 GB ] Глухарь-3. Возвращение / Серии: 1-22 из 64 | | Глухарь-3. Возвращение / Серии: 1-22 из 64 (Тимур Алпатов, Максим Аверин SLAYERMADES Скачать
1 | 0
Наши сериалы [ 7.84 GB ] Глухарь-3. Возвращение / Серии: 44-48 из 64 | | Глухарь-3. Возвращение / Серии: 44-48 из 64 (Тимур Алпатов, Максим Аверин DEMIGOD2012 Скачать
1 | 0
Наши сериалы [ 18.82 GB ] Глухарь-3. Возвращение / Серии: 23-34 из 64 | | Глухарь-3. Возвращение / Серии: 23-34 из 64 (Тимур Алпатов, Максим Аверин SLAYERMADES Скачать
1 | 0



Последний раз редактировалось: DEMIGOD2012 (2011-03-08 18:49), всего редактировалось 2 раз(а)

28-11-2019 20:33  

Отключить вcю реклaмy на сайте

03-03-2011 22:21 Глухарь-3. Возвращение Скачать торрент  

Спасибо,долго ждал продолжения но размерчик шокировал(



    Дорогой пользователь! Огромная просьба, поблагодарите релизера, оцените раздачу и оставьте свои комментарий, если Вы скачали Глухарь-3. Возвращение через торрент бесплатно!!
    Комментировать посты могут только пользователи прошедшие не сложную регистрацию
    Показать сообщения:    


    Глухарь-3. Возвращение через торрент
    Скачать бесплатно Глухарь-3. Возвращение
    Глухарь-3. Возвращение скачать торрент
    Глухарь-3. Возвращение смотреть онлайн
    Cкачать фильм Глухарь-3. Возвращение бесплатно
    Глухарь-3. Возвращение скачать торрент в хорошем качестве
    Глухарь-3. Возвращение смотреть онлайн бесплатно в хорошем качестве
    Вы не можете начинать темы
    Вы не можете отвечать на сообщения
    Вы не можете редактировать свои сообщения
    Вы не можете удалять свои сообщения
    Вы не можете голосовать в опросах
    Вы не можете прикреплять файлы к сообщениям
    Вы можете скачивать файлы