Лицензия

MVO

1

1 сезон

Лицензия

Лицензия

13

MVO

1 сезон

Deluxe Edition

pack

Рекомендуем

30

Repack

ВАЖНО

ВАЖНО

Ghostwire

RePack

jed

RePack

fifa19

RePack

RDR2

RePack

NEED FOR SPEED™ PAYBACK

RePack

Кинопоиск HD

 Острые козырьки 6 сезон

6 сезон

FAR CRY 6

RePack

Лицензия

MVO

1

1 сезон

1 сезон

Лицензия

  

Месть / Серии: 1-16 из 16 (Владимир Янковский) [2011, Криминальный фильм, DVB]

Месть через торрент kino.freetor.icu

Размер: 21.85 GB | Добавлен: 11 лет назад | Торрент скачан:98 раз
Смотреть онлайн Месть | Скачать   

05-03-2011 15:25 Месть Скачать торрент  

Месть

Год выпуска: 2010
Производство: Телекомпания "РасфокусФильм" по заказу Телеканала "НТВ"
Жанр: Детектив, криминальный фильм
Продолжительность: серия ~ 00:45:00
Субтитры: нет

Режиссер: Владимир Янковский

В ролях: Михаил Мамаев, Александр Носик, Яна Львова, Олег Шкловский, Валерий Анисенко, Ольга Бурлакова, Владимир Грицевский, Артем Давидович, Марина Денисова, Андрей Душечкин, Мария Захаревич, Александр Кашперов (II), Владимир Янковский

Описание: 90-е. Как недавно и как давно это было… В жизни героев того времени было все — бандитские разборки и финансовые пирамиды, смертельный риск, отчаянная любовь и беспощадная месть… Двое друзей — Родион Сидорский и Филипп Кудасов, пытаясь заработать, попали в водоворот криминальных страстей, в котором их жизням — грош цена. Но им удалось благополучно выпутаться из серьезной передряги и даже спасти жизнь девушке Наталье. Тогда у друзей возникла идея открыть свой бизнес. Талантливые, молодые, амбициозные Родион и Филипп бросились в бой за успех и капитал, думая, что всегда смогут друг другу доверять, но партнеры по делу оказались конкурентами в чувствах. Родион и Наталья влюбились друг в друга, а Филипп стал третьим лишним. Сначала никто не подозревал, что его обида и зависть развяжут настоящую войну, а предательство разобьет три жизни и заставит героев пройти через множество испытаний. Кого-то ждет тюрьма и банкротство, а кого-то — Влacть и иллюзорное счастье. Но в один день все снова изменится: зависть, однажды заставившая предать, чувство мести, которое двигало ими долгое время, не могут привести ни к чему, кроме трагедии…

Доп. информация: Запись со спутникового канала НТВ

Качество: DVB
Формат: MPEG-PS
Видео кодек: MPEG2
Аудио кодек: MPEG1 Layer 2
Видео: MPEG2 Video 720x576 (16:9) 25.00fps 3945 Кбит/сек, 0.380 bit/pixel
Аудио: MPEG Audio 48000Hz stereo 192 Кбит/сек
General
Complete name : L:\8-Месть\Месть_DVB_By_dfkthbq1968\Месть_1_серия_DVB_By_dfkthbq1968.mpg
Format : MPEG-PS
File size : 1.36 GiB
Duration : 45mn 4s
Overall bit rate : 4 308 Kbps
Writing library : (c) 1998-2009 Womble Multimedia, Inc. / MPEG Video Wizard (03/2009) / Nov 28 2009

Video
ID : 224 (0xE0)
Format : MPEG Video
Format version : Version 2
Format profile : Main@Main
Format settings, BVOP : Yes
Format settings, Matrix : Default
Format_Settings_GOP : M=1, N=24
Duration : 45mn 4s
Bit rate mode : Variable
Bit rate : 3 945 Kbps
Nominal bit rate : 15.0 Mbps
Width : 720 pixels
Height : 576 pixels
Display aspect ratio : 4:3
Frame rate : 25.000 fps
Standard : PAL
Resolution : 8 bits
Colorimetry : 4:2:0
Scan type : Interlaced
Scan order : Top Field First
Bits/(Pixel*Frame) : 0.380
Stream size : 1.24 GiB (92%)
Writing library : (c) 1998-2009 Womble Multimedia, Inc. / MPEG Video Wizard (03/2009) / Nov 28 2009

Audio
ID : 192 (0xC0)
Format : MPEG Audio
Format version : Version 1
Format profile : Layer 2
Duration : 45mn 4s
Bit rate mode : Constant
Bit rate : 192 Kbps
Channel(s) : 2 channels
Sampling rate : 48.0 KHz
Stream size : 61.9 MiB (4%)



Скачать Месть через торрент http://i1-imageban-ru.translate.goog/out/2011/02/28/960521f0d336895ef7a0d2011363c139.png Скачать, смотреть онлайн Месть бесплантно в хорошем качестве Описание: 90-е. Как недавно и как давно это было… В жизни героев того времени было все — бандитские разборки и финансовые пирамиды, ... 10 10 1
Info! Золотая раздача, скачанное не засчитывается.
Торрент: Зарегистрирован [2011-03-05 15:25] · скачан: 98 раз
Статус: √ проверено
Размер: 21.85 GB
Как cкачать? Как скачать Месть через торрент | UTorrent

% Раздел Тема Автор DL S | L
Наши сериалы [ 8.27 GB ] Месть / Серии: 16 из 16 | | SATRip -=Cherry=- Скачать
1 | 0

28-11-2019 20:33  

Отключить вcю реклaмy на сайте

05-03-2011 17:34 Месть Скачать торрент  

смотрел 1 серию!!!!!! 2 уже смотреть не охота



29-04-2011 17:35 Месть Скачать торрент  

Спасибо!!! Фильм супер!!!



    Дорогой пользователь! Огромная просьба, поблагодарите релизера, оцените раздачу и оставьте свои комментарий, если Вы скачали Месть через торрент бесплатно!!
    Комментировать посты могут только пользователи прошедшие не сложную регистрацию
    Показать сообщения:    


    Месть через торрент
    Скачать бесплатно Месть
    Месть скачать торрент
    Месть смотреть онлайн
    Cкачать фильм Месть бесплатно
    Месть скачать торрент в хорошем качестве
    Месть смотреть онлайн бесплатно в хорошем качестве
    Вы не можете начинать темы
    Вы не можете отвечать на сообщения
    Вы не можете редактировать свои сообщения
    Вы не можете удалять свои сообщения
    Вы не можете голосовать в опросах
    Вы не можете прикреплять файлы к сообщениям
    Вы можете скачивать файлы