Лицензия

MVO

1

1 сезон

Лицензия

Лицензия

13

MVO

1 сезон

Deluxe Edition

pack

Рекомендуем

30

Repack

ВАЖНО

ВАЖНО

Ghostwire

RePack

jed

RePack

fifa19

RePack

RDR2

RePack

NEED FOR SPEED™ PAYBACK

RePack

Кинопоиск HD

 Острые козырьки 6 сезон

6 сезон

FAR CRY 6

RePack

Лицензия

MVO

1

1 сезон

1 сезон

Лицензия

  

Заградотряд: Соло на минном поле / (1-4 серии из 4) (Валентин Донсков) [2009, Россия, драма, военный, DVD9] R5 «Флагман-Трейд»

Заградотряд: Соло на минном поле через торрент kino.freetor.icu

Размер: 7.71 GB | Добавлен: 11 лет назад | Торрент скачан:63 раза
Смотреть онлайн Заградотряд: Соло на минном поле | Скачать   

04-05-2011 01:37 Заградотряд: Соло на минном поле Скачать торрент  


Заградотряд: Соло на минном поле
Страна: Россия
Студия: Народное кино
Жанр: драма, военный
Год выпуска: 2009
Дата выхода DVD: 24 июня 2010, «Флагман-Трейд»
Продолжительность: 02:55:48
Перевод: Оригинал [Лицензия]
Cубтитры: нет
Оригинальная аудиодорожка: русский
Режиссер: Валентин Донсков
В ролях: Евгений Ткачук, Григорий Добрыгин, Андрей Смелов, Павел Яскевич, Андрей Гусев, Равиль Султанов, Игорь Теплов, Антон Эльдаров, Даниил Воробьев, Анатолий Кот
Описание: Фильм повествует о трагической судьбе молодого разведчика Павла Потемкина, судьба которого неожиданно меняется и его зачисляют бойцом заградотряда, где Пашка формулирует понятие заградотряда.
Заградотряд — это те, кто загрождают собой других. Во время одного из сражений, отбивая одну атаку за другой, бойцы заградотряда узнают, что за линией фронта умирает брошенный на произвол судьбы детский дом… Жертвуя собой, задерживая немцев, взрываясь на минах, чтобы обозначить путь детям, гибнут один за другим бойцы заградотряда.

Бонусы: нет

Качество: DVD9 R5
Формат: DVD-Video
Видео кодек: MPEG2
Аудио кодек: AC3
Видео: PAL 4:3 (720x576(0.592)) MPEG Video,25,000 кадр/сек, 6134 Кбит/сек
Аудио: Russian (Dolby AC3, 2 ch) 192 Кбит/сек, 48,0 КГц



Title: E
Size: 7.71 Gb ( 8 080 874 KBytes ) - DVD-9
Enabled regions: 1, 2, 3, 4, 5, 6, 7, 8

VTS_01 :
Play Length: 00:45:05+00:43:48+00:45:17+00:41:38
Video: PAL 4:3 (720x576) VBR
Audio:
Russian (Dolby AC3, 2 ch)

Menu Video:
PAL 4:3 (720x576) VBR
Menu Subtitles:
Not specified
Menu Russian Language Unit :
Root Menu
Общее
Полное имя : K:\Вторая Мировая\Zagradotryad.2009.DVD9\VIDEO_TS\VTS_01_1.VOB
Формат : MPEG-PS
Размер файла : 1024 Мбайт
Продолжительность : 22 м.
Общий поток : 6454 Кбит/сек

Видео
Идентификатор : 224 (0xE0)
Формат : MPEG Video
Версия формата : Version 2
Профиль формата : Main@Main
Параметр BVOP формата : Да
Параметр матрицы формата : По умолчанию
Продолжительность : 22 м.
Вид битрейта : Переменный
Битрейт : 6134 Кбит/сек
Номинальный битрейт : 9000 Кбит/сек
Ширина : 720 пикс.
Высота : 576 пикс.
Соотношение сторон : 4:3
Частота кадров : 25,000 кадр/сек
Стандарт вещания : PAL
Цветовое пространство : YUV
Подвыборка цветности : 4:2:0
Битовая глубина : 8 бит
Тип развёртки : Чересстрочная
Порядок развёртки : Верхнее поле первое
Метод сжатия : С потерями
Бит/(Пиксели*Кадры) : 0.592
Размер потока : 973 Мбайт (95%)

Аудио
Идентификатор : 189 (0xBD)-128 (0x80)
Формат : AC-3
Формат/Информация : Audio Coding 3
Расширение режима : CM (complete main)
Режим смешивания : DVD-Video
Продолжительность : 22 м.
Вид битрейта : Постоянный
Битрейт : 192 Кбит/сек
Канал(ы) : 2 канала(ов)
Расположение каналов : Front: L R
Частота : 48,0 КГц
Битовая глубина : 16 бит
Метод сжатия : С потерями
Размер потока : 30,5 Мбайт (3%)













Скачать Заградотряд: Соло на минном поле через торрент http://i20.fastpic.ru/big/2011/0504/a5/aebabdee3a4a4403afd2f6ab0b31f1a5.jpg Скачать, смотреть онлайн Заградотряд: Соло на минном поле бесплантно в хорошем качестве Описание: Фильм повествует о трагической судьбе молодого разведчика Павла Потемкина, судьба которого неожиданно меняется и его зачисляют ... 10 10 2
Info! Золотая раздача, скачанное не засчитывается.
Торрент: Зарегистрирован [2011-05-04 01:37] · скачан: 63 раз
Статус: √ проверено
Размер: 7.71 GB
Как cкачать? Как скачать Заградотряд: Соло на минном поле через торрент | UTorrent

28-11-2019 20:33  

Отключить вcю реклaмy на сайте

14-06-2011 18:48 Заградотряд: Соло на минном поле Скачать торрент  

Спасибо



30-08-2011 08:39 Заградотряд: Соло на минном поле Скачать торрент  

спасибо, посмотрим



31-08-2011 06:14 Заградотряд: Соло на минном поле Скачать торрент  

люди! плиз! встаньте на раздачу!!!!!



    Дорогой пользователь! Огромная просьба, поблагодарите релизера, оцените раздачу и оставьте свои комментарий, если Вы скачали Заградотряд: Соло на минном поле через торрент бесплатно!!
    Комментировать посты могут только пользователи прошедшие не сложную регистрацию
    Показать сообщения:    


    Заградотряд: Соло на минном поле через торрент
    Скачать бесплатно Заградотряд: Соло на минном поле
    Заградотряд: Соло на минном поле скачать торрент
    Заградотряд: Соло на минном поле смотреть онлайн
    Cкачать фильм Заградотряд: Соло на минном поле бесплатно
    Заградотряд: Соло на минном поле скачать торрент в хорошем качестве
    Заградотряд: Соло на минном поле смотреть онлайн бесплатно в хорошем качестве
    Вы не можете начинать темы
    Вы не можете отвечать на сообщения
    Вы не можете редактировать свои сообщения
    Вы не можете удалять свои сообщения
    Вы не можете голосовать в опросах
    Вы не можете прикреплять файлы к сообщениям
    Вы можете скачивать файлы