Всегда рабочее зеркало без VPN и Proxy просто перед .vidak.icu напиши любое слово или цифру, Пример http://wuwx.vidak.icu

Лицензия

MVO

1 сезон

1

1 сезон

iTunes

1 сезон

13

1 сезон

Deluxe

pack

Рекомендуем

Repack

30

ВАЖНО

RePack

MK11

RePack

jed

RePack

fifa19

RePack

RDR2

RePack

NEED FOR SPEED™ PAYBACK

Кинопоиск HD

6 сезон

 Острые козырьки 6 сезон

Все сериалы

все сериалы на PB.wtf

RePack

FAR CRY 5
  
Magnet ссылка

Убежище / Sanctuary / Сезон: 4 / Серии: 1-13 (13) (Мартин Вуд / Martin Wood и др.) [2011 г., фантастика, WEB-DL 720p] (Gravi-TV) kino.freetor.icu

Убежище через торрент kino.freetor.icu

Размер: 19.71 GB | Добавлен: 10 лет назад | Торрент скачан:434 раза
Смотреть онлайн Убежище | Скачать    Ребята, помогите собрать деньги на оплату серверов!!!

11-12-2011 13:34 Убежище Скачать торрент  



[font="Verdana"]Убежище / Sanctuary


Год выпуска: 2011
Страна: США
Жанр: фантастика
Продолжительность: ~ 42 минуты
Перевод: Любительский (двухголосый, закадровый) - [font="Georgia"]Gravi-TV
Субтитры: Нет
Режиссёр: Мартин Вуд и др.
В ролях: Аманда Таппинг, Робин Данн, Кристофер Хейердал, Леа Кейрнс, Миранда Фригон, Лаура Меннелл, Райан Роббинс, Питер ДеЛуис и др.
Описание: Убежище повествует о истории доктора Хелен Магнус, которая разыскивает разного рода чудовищных созданий(также известных как "анормальные"). Некоторых из них нужно держать в заперти ради защиты людей, а некоторых - защищать от самих людей. В этом ей помогают её коллега доктор Уилл Зиммерман, бесстрашная и порой безрассудная дочь Эшли, черезчур разговорчивый компьютерный гений и специалист по безопасности Генри Фосс, а также Бигфут - молчаливый неандерталец, наделённый интеллектом.
Качество: WEB-DL 720p
Формат: MKV
Видео кодек: H.264
Аудио кодек: AC3
Видео: 1280x720 (16:9), 23.976 fps, ~4000 kbps, ~0.180 bit/pixel
Аудио Rus: 48 kHz, 6 ch, ~384 kbps |Gravi-TV|
Аудио Eng: 48 kHz, 6 ch, ~384 kbps |Original|

[font="Georgia"]Озвучка: Alex White & Irene Black
[font="Georgia"]Работа со звуком 5.1: Veryserg, AlexWhite, kiberline
[font="Georgia"]Сведение звука: Alex White, kiberline/1/film/311095/]
Время / Tempus
Восстание / Uprising
Неприкасаемый / Untouchable
Сезон дождей / Monsoon
Сопротивление / Resistance
Возвращение / Homecoming
Ледокол / Icebreaker
Мелодия чувств / Fugue
Химера / Chimera
Старый друг / Acolyte
Живая вода / The Depths
Новый Дом_1 / Sanctuary For None_1
Новый Дом_2 / Sanctuary For None_2
Общее
Уникальный идентификатор : 240884260600810962705502045492018528356 (0xB5389EFDEFD1F65E8D03DC15C67DC064)
Полное имя : D:\Sanctuary.s04.WEB-DL.720p.Rus.Eng.[Gravi-TV]\Sanctuary.s04e01.Tempus.WEB-DL.720p.Rus.Eng.[Gravi-TV].mkv
Формат : Matroska
Версия формата : Version 1
Размер файла : 1,56 Гбайт
Продолжительность : 44 м.
Общий поток : 4964 Кбит/сек
Название фильма : Sanctuary.S04E01.Tempus.720p.WEB.DL.DD5.1.ECI.mkv 10563
Дата кодирования : UTC 2011-10-09 14:49:30
Программа кодирования : mkvmerge v2.0.0 ('After The Rain Has Fallen') built on Jan 13 2007 19:58:56
Библиотека кодирования : libebml v0.7.7 + libmatroska v0.8.0
Видео
Идентификатор : 1
Формат : AVC
Формат/Информация : Advanced Video Codec
Профиль формата : High@L3.1
Параметр CABAC формата : Нет
Параметр ReFrames формата : 2 кадра
Параметры GOP формата : M=2, N=29
Идентификатор кодека : V_MPEG4/ISO/AVC
Продолжительность : 44 м.
Битрейт : 4098 Кбит/сек
Ширина : 1280 пикс.
Высота : 720 пикс.
Соотношение сторон : 16:9
Частота кадров : 23,976 кадр/сек
Цветовое пространство : YUV
Подвыборка цветности : 4:2:0
Битовая глубина : 8 бит
Тип развёртки : Прогрессивная
Бит/(Пиксели*Кадры) : 0.185
Размер потока : 1,29 Гбайт (83%)
Язык : English
Основные цвета : BT.709-5, BT.1361, IEC 61966-2-4, SMPTE RP177
Характеристики трансфера : BT.709-5, BT.1361
Коэффициенты матрицы : BT.709-5, BT.1361, IEC 61966-2-4 709, SMPTE RP177
Аудио #1
Идентификатор : 2
Формат : AC-3
Формат/Информация : Audio Coding 3
Расширение режима : CM (complete main)
Идентификатор кодека : A_AC3
Продолжительность : 44 м.
Вид битрейта : Постоянный
Битрейт : 384 Кбит/сек
Каналы : 6 каналов
Расположение каналов : Front: L C R, Side: L R, LFE
Частота : 48,0 КГц
Битовая глубина : 16 бит
Метод сжатия : С потерями
Размер потока : 124 Мбайт (8%)
Заголовок : Gravi-TV.net
Язык : Russian
Аудио #2
Идентификатор : 3
Формат : AC-3
Формат/Информация : Audio Coding 3
Расширение режима : CM (complete main)
Идентификатор кодека : A_AC3
Продолжительность : 44 м.
Вид битрейта : Постоянный
Битрейт : 384 Кбит/сек
Каналы : 6 каналов
Расположение каналов : Front: L C R, Side: L R, LFE
Частота : 48,0 КГц
Битовая глубина : 16 бит
Метод сжатия : С потерями
Размер потока : 124 Мбайт (8%)
Язык : English
kino.freetor.icu



Скачать Убежище через торрент http://i28.fastpic.ru/big/2011/1105/f6/c7f378ba0695eb38db321b4785d6eef6.jpg Скачать, смотреть онлайн Убежище бесплантно в хорошем качестве Описание: Убежище повествует о истории доктора Хелен Магнус, которая разыскивает разного рода чудовищных созданий(также известных как ... 9.5 10 10
Info! Золотая раздача, скачанное не засчитывается.
Торрент: Зарегистрирован [2012-03-26 11:13] · скачан: 434 раз
Статус: √ проверено
Размер: 19.71 GB
Как cкачать? Как скачать Убежище через торрент | UTorrent



Последний раз редактировалось: Stargate_Universe (2012-03-26 15:27), всего редактировалось 3 раз(а)

28-11-2019 20:33  

Отключить вcю реклaмy на сайте

11-12-2011 16:27 Убежище Скачать торрент  

Спасибо!kino.freetor.icu



11-12-2011 20:44 Убежище Скачать торрент  

А какого 1 серия без перевода?kino.freetor.icu



13-12-2011 14:44 Убежище Скачать торрент  

поменяйте дорожку с анг на русский либо у вас с плеером что то у меня все нормkino.freetor.icu



    Дорогой пользователь! Огромная просьба, поблагодарите релизера, оцените раздачу и оставьте свои комментарий, если Вы скачали Убежище через торрент бесплатно!
    Комментировать посты могут только пользователи прошедшие не сложную регистрацию
    Показать сообщения:    

    Убежище через торрент
    Скачать бесплатно Убежище
    Убежище скачать торрент
    Убежище смотреть онлайн
    Cкачать фильм Убежище бесплатно
    Убежище скачать торрент в хорошем качестве
    Убежище смотреть онлайн бесплатно в хорошем качестве


    Вы не можете начинать темы
    Вы не можете отвечать на сообщения
    Вы не можете редактировать свои сообщения
    Вы не можете удалять свои сообщения
    Вы не можете голосовать в опросах
    Вы не можете прикреплять файлы к сообщениям
    Вы можете скачивать файлы