Присоединяйтесь к нам в Telegram!, здесь всегда актуальный адрес сайта, оперативная поддержка и многое другое!!

>

5.9

iTunes

7.4

iTunes

9.4

1 сезон

1

7.4

2 сезон

7.2

iTunes

7.3

1 сезон

13

6.1

iTunes

8.3

GOG

30

ULTIMATE

pack

9.9

Лицензия

ВАЖНО

ИГРА 18+

pack

7.3

RePack

MK11

7.7

RePack

jed

7.8

RePack

fifa19

8.5

RePack

RDR2

RePack

NEED FOR SPEED™ PAYBACK

5 сезон

9 сезон

Бесстыжие 9 сезон

Все сериалы

все сериалы на PB.wtf

RePack

FAR CRY 5

Anonymous, доброе утро, мы катастрофически не успеваем собрать деньги на оплату серверов, помогите нам пожалуйста 5,10,15р., для нас важна любая помощь . В качестве благодарности мы отключим Вам всю рекламу на сайте (укажите свой ник в строку Ваше имя)!

×
  
Magnet ссылка

Подъем с глубины / Deep Rising (Стивен Соммерс /Stephen Sommers) [1998 г., ужасы, фантастика, боевик, триллер, HDTV 1080i] DVO (West) + MVO (НТВ+, ОРТ) + AVO (Гаврилов, Живов) + Original + SUB (Rus, Eng) kino.freetor.icu

Подъем с глубины через торрент kino.freetor.icu

Размер: 9.29 GB | Добавлен: 9 лет 3 мес. назад | Торрент скачан:84 раза
Смотреть онлайн Подъем с глубины | Скачать    Ребята, помогите собрать деньги на оплату серверов!!!

01-08-2012 15:35 Подъем с глубины Скачать торрент  

Подъем с глубины / Deep Rising

Год выпуска: 1998
Страна: США
Жанр: ужасы, фантастика, боевик, триллер
Продолжительность: 01:42:06
Перевод: Профессиональный (двухголосый закадровый) West Video
Cубтитры: русские/английские
Режиссер: Стивен Соммерс /Stephen Sommers
Продюссер: Джон Балдеччи, Бэрри Бернарди, Ховард Эллис
Бюджет: $45 000 000
В ролях: Трит Уильямс, Фамке Янссен, Энтони Хилд, Кевин Дж. О’Коннор, Уэс Студи, Деррик О’Коннор, Джейсон Флеминг, Клифф Кёртис, Клифтон Пауэлл, Тревор Годдар
Описание: Банда наемников отправляется на перехват океанского пассажирского лайнера с целью захвата драгоценностей и денег. Вооруженные до зубов, они рассчитывают на успех этой тщательно спланированной операции. Но боевая уверенность захватчиков сменяется ужасом перед небывалыми чудовищами, устроившими пир на корабле! У этих монстров здесь не было противников! Кровь тысяч людей не смогла утолить их жажду, и они принялись за наемников...
Качество: HDTV
Формат: BDAV
Видео кодек: Другой MPEG4
Аудио кодек: AC3
Видео: 1920x1080i at 25.000 fps, MPEG-4 AVC, ~11.0 Mbps avg
Аудио#1: Russian: 48 kHz, AC3, 3/2 (L,C,R,l,r) + LFE ch, ~384.00 kbps avg /Двухголосый закадровый, West Video
Аудио#2: Russian: 48 kHz, AC3, 3/2 (L,C,R,l,r) + LFE ch, ~384.00 kbps avg /Одноголосый закадровый, А.Гаврилов
Аудио#3: Russian: 48 kHz, AC3, 3/2 (L,C,R,l,r) + LFE ch, ~384.00 kbps avg /Одноголосый закадровый, Ю.Живов|
Аудио#4: English: 48 kHz, AC3, 3/2 (L,C,R,l,r) + LFE ch, ~384.00 kbps avg
General
ID : 1 (0x1)
Complete name : D:\фильмы\Deep.Rising.DVB.HDTV.1080i\Deep.Rising.DVB.HDTV.1080i\BDMV\STREAM\00000.m2ts
Format : BDAV
Format/Info : Blu-ray Video
File size : 9.29 GiB
Duration : 1h 42mn
Overall bit rate mode : Variable
Overall bit rate : 13.0 Mbps
Maximum Overall bit rate : 35.5 Mbps

Video
ID : 4113 (0x1011)
Menu ID : 1 (0x1)
Format : AVC
Format/Info : Advanced Video Codec
Format profile : High@L4.0
Format settings, CABAC : Yes
Format settings, ReFrames : 3 frames
Codec ID : 27
Duration : 1h 42mn
Bit rate mode : Variable
Bit rate : 11.0 Mbps
Maximum bit rate : 40.0 Mbps
Width : 1 920 pixels
Height : 1 080 pixels
Display aspect ratio : 16:9
Frame rate : 25.000 fps
Standard : Component
Color space : YUV
Chroma subsampling : 4:2:0
Bit depth : 8 bits
Scan type : Interlaced
Scan order : Top Field First
Bits/(Pixel*Frame) : 0.211
Stream size : 7.82 GiB (84%)
Color primaries : BT.709-5, BT.1361, IEC 61966-2-4, SMPTE RP177
Transfer characteristics : BT.709-5, BT.1361
Matrix coefficients : BT.709-5, BT.1361, IEC 61966-2-4 709, SMPTE RP177

Audio #1
ID : 4352 (0x1100)
Menu ID : 1 (0x1)
Format : AC-3
Format/Info : Audio Coding 3
Mode extension : CM (complete main)
Codec ID : 129
Duration : 1h 42mn
Bit rate mode : Constant
Bit rate : 384 Kbps
Channel(s) : 6 channels
Channel positions : Front: L C R, Side: L R, LFE
Sampling rate : 48.0 KHz
Bit depth : 16 bits
Compression mode : Lossy
Stream size : 280 MiB (3%)
Language : Russian

Audio #2
ID : 4353 (0x1101)
Menu ID : 1 (0x1)
Format : AC-3
Format/Info : Audio Coding 3
Mode extension : CM (complete main)
Codec ID : 129
Duration : 1h 42mn
Bit rate mode : Constant
Bit rate : 384 Kbps
Channel(s) : 6 channels
Channel positions : Front: L C R, Side: L R, LFE
Sampling rate : 48.0 KHz
Bit depth : 16 bits
Compression mode : Lossy
Stream size : 280 MiB (3%)
Language : Russian

Audio #3
ID : 4354 (0x1102)
Menu ID : 1 (0x1)
Format : AC-3
Format/Info : Audio Coding 3
Mode extension : CM (complete main)
Codec ID : 129
Duration : 1h 42mn
Bit rate mode : Constant
Bit rate : 384 Kbps
Channel(s) : 6 channels
Channel positions : Front: L C R, Side: L R, LFE
Sampling rate : 48.0 KHz
Bit depth : 16 bits
Compression mode : Lossy
Stream size : 280 MiB (3%)
Language : Russian

Audio #4
ID : 4355 (0x1103)
Menu ID : 1 (0x1)
Format : AC-3
Format/Info : Audio Coding 3
Mode extension : CM (complete main)
Codec ID : 129
Duration : 1h 42mn
Bit rate mode : Constant
Bit rate : 384 Kbps
Channel(s) : 6 channels
Channel positions : Front: L C R, Side: L R, LFE
Sampling rate : 48.0 KHz
Bit depth : 16 bits
Compression mode : Lossy
Stream size : 280 MiB (3%)
Language : English

Text #1
ID : 4608 (0x1200)
Menu ID : 1 (0x1)
Format : PGS
Codec ID : 144
Language : Russian

Text #2
ID : 4609 (0x1201)
Menu ID : 1 (0x1)
Format : PGS
Codec ID : 144
Language : English


kino.freetor.icu



Скачать Подъем с глубины через торрент http://torrentok.in/film_img_big/1401536165.jpg Скачать, смотреть онлайн Подъем с глубины бесплантно в хорошем качестве Описание: Банда наемников отправляется на перехват океанского пассажирского лайнера с целью захвата драгоценностей и денег. Вооруженные до ... 10 10 3
Info! Золотая раздача, скачанное не засчитывается.
Торрент: Зарегистрирован [2012-08-01 15:35] · скачан: 84 раз
Статус: √ проверено
Размер: 9.29 GB
Как cкачать? Как скачать Подъем с глубины через торрент | UTorrent

% Раздел Тема Автор DL S | L
Фильмы (HD 720p, 1080p) (48-60 fps) [ 4.1 GB ] Подъем с глубины / Deep Rising [1998 WEB-DLRip 720p / 60 FPS ] от R.G. HD-Films slaventi-69 Скачать
2 | 0
Фильмы с авторской озвучкой [ 2.18 GB ] Подъем с глубины / Deep Rising [1998 BDRip] 2x[AVO] killermax2013 Скачать
1 | 0
Фильмы до 2000 г. [ 1.36 GB ] Подъем с глубины / Deep Rising [1998 ... DVDRip] MoNaZ Скачать
1 | 0
Фильмы (WEB-DL 720p, 1080p) [ 4.26 GB ] Подъем с глубины / Deep Rising [1998 HDTVRip 720p] DVO + MVO + AVO + Original + SUB -=Cherry=- Скачать
1 | 0

28-11-2019 20:33  

Отключить всю рекламу на сайте

01-08-2012 17:42 Подъем с глубины Скачать торрент  

Шикарный фильм и это 1998 год!!!!!!!!!!!!!!!!!!!! А щас снимают шлак.kino.freetor.icu



01-08-2012 18:10 Подъем с глубины Скачать торрент  

да......в своё время фильм офигенный был.kino.freetor.icu



01-08-2012 19:35 Подъем с глубины Скачать торрент  

Один из самых лучших фильмов после "Челюстей"! А потом были "Мумии" !!!!!kino.freetor.icu



01-08-2012 22:44 Подъем с глубины Скачать торрент  

О да, я полностью согласен с вами, мне просто на днях не чего смотреть было, да и вот чет вспомнилось и я решил в качестве найти, и посмотреть)kino.freetor.icu



25-11-2018 17:46 Подъем с глубины Скачать торрент  

Один из лучших боевиков 90-х. Соммерс сотворил чудо. Не имея огромного бюджета, звезд первой величины и еще хрен знает чего, он снял фильм который до сих пор наравне с первым Хищником пересматриваю регулярно. Трит Уильямс, Фамке Янссен, Энтони Хилд и прочие - вы знаете кто это? И я не знал, пока не посмотрел этот офигенный фильм. Кто не видел - качайте бегом и смотрите, никакие мстители и рядом не валялись. Всем пока!kino.freetor.icu



25-11-2018 17:48 Подъем с глубины Скачать торрент  

И смотреть обязательно в озвучке Живова или Гаврилова. Экстаз гарантирован )))kino.freetor.icu



06-03-2021 18:52 Подъем с глубины Скачать торрент  

дайте скорости ребятkino.freetor.icu



06-03-2021 18:55 Подъем с глубины Скачать торрент  

Цитата:

Подъем с глубины / Deep Rising (Стивен Соммерс /Stephen Sommers) [1998 г., ужасы, фантастика, боевик, триллер, HDTV 1080i] DVO (West) + MVO (НТВ+, ОРТ) + AVO (Гаврилов, Живов) + Original + SUB (Rus, Eng)

скоростиkino.freetor.icu



08-03-2021 09:32 Подъем с глубины Скачать торрент  

СКОРОСТИkino.freetor.icu



    Дорогой пользователь! Огромная просьба, поблагодарите релизера, оцените раздачу и оставьте свои комментарий, если Вы скачали Подъем с глубины через торрент бесплатно!
    Комментировать посты могут только пользователи прошедшие не сложную регистрацию
    Показать сообщения:    

    Подъем с глубины через торрент
    Скачать бесплатно Подъем с глубины
    Подъем с глубины скачать торрент
    Подъем с глубины смотреть онлайн
    Cкачать фильм Подъем с глубины бесплатно
    Подъем с глубины скачать торрент в хорошем качестве
    Подъем с глубины смотреть онлайн бесплатно в хорошем качестве


    Вы не можете начинать темы
    Вы не можете отвечать на сообщения
    Вы не можете редактировать свои сообщения
    Вы не можете удалять свои сообщения
    Вы не можете голосовать в опросах
    Вы не можете прикреплять файлы к сообщениям
    Вы можете скачивать файлы