Anonymous, доброе утро, присоединяйтесь к нам в Telegram!, здесь всегда актуальный адрес сайта, оперативная поддержка и многое другое!

>

5.5

iTunes

7.4

iTunes

7.9

iTunes

1

7.7

1 сезон

6.8

iTunes

7.3

1 сезон

13

6.7

1 сезон

8.3

RePack

30

ULTIMATE

pack

9.9

Лицензия

ВАЖНО

ИГРА 18+

pack

7.3

RePack

MK11

7.7

RePack

jed

7.8

RePack

fifa19

8.5

RePack

RDR2

RePack

NEED FOR SPEED™ PAYBACK

4 сезон

9 сезон

Бесстыжие 9 сезон

Все сериалы

все сериалы на PB.wtf

RePack

FAR CRY 5

Anonymous, доброе утро, мы катастрофически не успеваем собрать деньги на оплату серверов, помогите нам пожалуйста 5,10,15р., для нас важна любая помощь . В качестве благодарности мы отключим Вам всю рекламу на сайте (укажите свой ник в строку Ваше имя)!

×
  
Magnet ссылка

Птаха - Старые тайны 2012 / FLAC (image+.cue) / lossless / Rap / Hip-Hop kino.freetor.icu

Птаха - Старые тайны 2012 через торрент kino.freetor.icu

Размер: 508 MB | Добавлен: 8 лет 10 мес. назад | Торрент скачан:235 раз
Смотреть онлайн Птаха - Старые тайны 2012 | Скачать    Ребята, помогите собрать деньги на оплату серверов!!!

23-12-2012 02:18 Птаха - Старые тайны 2012 Скачать торрент  

Птаха - Старые тайны (2012)
Страна: Россия
Год Выпуска: 2012
Жанр: Rap / Hip-Hop
Издатель (лейбл): (С) ЗАО "С.Б.А. Мьюзик Паблишинг"
Номер по каталогу: 10774
Продолжительность: 01:14:39
Кодек: FLAC (*.flac)
Тип рипа: image+.cue
Битрейт: lossless
Наличие сканов в содержимом раздачи: нет
  • 01 - На Полосках (Записка #1) [01:55]
  • 02 - Рубины (feat. Tato) [03:19]
  • 03 - 2Х2 [02:58]
  • 04 - Пиз**лина (Skit) [02:14]
  • 05 - Чика (feat. Tato) [04:25]
  • 06- Чёрный Ворон [02:52]
  • 07 - Света Луч [02:55]
  • 08 - Тебе [03:44]
  • 09 - За Ашота [03:24]
  • 10 - На Восход (feat. Костя Бес) [04:22]
  • 11 - Вдох-Выдох (feat. Slim) [04:22]
  • 12 - Первое Слово [04:30]
  • 13 - Моя Основа (feat. Misha Krupin) [04:09]
  • 14 - Аист [02:36]
  • 15 - Парни Идут (feat. Tato & Gipsy King) [04:00]
  • 16 - Милкивей (Записка #2) [01:28]
  • 17 - Дымом В Облака (feat. Бьянка) [03:58]
  • 18 - Летний (feat. Tato) [03:19]
  • 19 - Старые Тайны [02:57]
  • 20 - Не Забуду [03:39]
  • 21 - Через Тучи (Записка #3) [01:38]
  • 22 - За Минусок (Skit) [01:39]
  • 23 - Миф (feat. Musa & Dok) [03:38]
  • 24 - Раз**баю (Skit) [00:38]

Exact Audio Copy V1.0 beta 3 from 29. August 2011

Отчёт EAC об извлечении, выполненном 22. декабря 2012, 17:42

Птаха / Старые тайны

Дисковод: Optiarc DVD RW AD-7280S Adapter: 0 ID: 0

Режим чтения : Достоверность
Использование точного потока : Да
Отключение кэша аудио : Да
Использование указателей C2 : Нет

Коррекция смещения при чтении : 48
Способность читать области Lead-in и Lead-out : Нет
Заполнение пропущенных сэмплов тишиной : Да
Удаление блоков с тишиной в начале и конце : Нет
При вычислениях CRC использовались нулевые сэмплы : Да
Интерфейс : Встроенный Win32-интерфейс для Win NT/2000
Обработка зазоров : Добавлено к предыдущему треку

Выходной формат : Пользовательский кодировщик
Выбранный битрейт : 128 kBit/s
Качество : Высокий
Добавление ID3-тега : Нет
Утилита сжатия : C:Program Files (x86)FLACflac.exe
Дополнительные параметры : -V -8 -T "Genre=%genre%" -T "Artist=%artist%" -T "Title=%title%" -T "Album=%albumtitle%" -T "Date=%year%" -T "Tracknumber=%tracknr%" -T "Comment=%comment%" %source%

TOC извлечённого CD

Трек | Старт | Длительность | Начальный сектор | Конечный сектор
---------------------------------------------------------------------
1 | 0:00.00 | 1:54.73 | 0 | 8622
2 | 1:54.73 | 3:18.47 | 8623 | 23519
3 | 5:13.45 | 2:57.47 | 23520 | 36841
4 | 8:11.17 | 2:13.34 | 36842 | 46850
5 | 10:24.51 | 4:24.47 | 46851 | 66697
6 | 14:49.23 | 2:51.60 | 66698 | 79582
7 | 17:41.08 | 2:54.36 | 79583 | 92668
8 | 20:35.44 | 3:43.21 | 92669 | 109414
9 | 24:18.65 | 3:23.29 | 109415 | 124668
10 | 27:42.19 | 4:21.60 | 124669 | 144303
11 | 32:04.04 | 4:21.36 | 144304 | 163914
12 | 36:25.40 | 4:30.03 | 163915 | 184167
13 | 40:55.43 | 4:08.33 | 184168 | 202800
14 | 45:04.01 | 2:36.00 | 202801 | 214500
15 | 47:40.01 | 3:59.54 | 214501 | 232479
16 | 51:39.55 | 1:28.21 | 232480 | 239100
17 | 53:08.01 | 3:57.20 | 239101 | 256895
18 | 57:05.21 | 3:18.43 | 256896 | 271788
19 | 60:23.64 | 2:56.60 | 271789 | 285048
20 | 63:20.49 | 3:38.19 | 285049 | 301417
21 | 66:58.68 | 1:37.67 | 301418 | 308759
22 | 68:36.60 | 1:38.48 | 308760 | 316157
23 | 70:15.33 | 3:37.48 | 316158 | 332480
24 | 73:53.06 | 0:38.26 | 332481 | 335356

Трек 1

Имя файла D:Птаха старые тайны�1 На Полосках (Записка #1).wav

Длина предзазора 0:00:02.00

Пиковый уровень 100.0 %
Скорость извлечения 2.1 X
Качество трека 100.0 %
CRC теста 3D61C299
CRC копии 3D61C299
Трек не обнаружен в базе AccurateRip
Копирование... OK

Трек 2

Имя файла D:Птаха старые тайны�2 Рубины (feat. Tato).wav

Пиковый уровень 100.0 %
Скорость извлечения 2.5 X
Качество трека 100.0 %
CRC теста 047FE826
CRC копии 047FE826
Трек не обнаружен в базе AccurateRip
Копирование... OK

Трек 3

Имя файла D:Птаха старые тайны�3 2Х2.wav

Пиковый уровень 100.0 %
Скорость извлечения 2.3 X
Качество трека 99.9 %
CRC теста 5C33A425
CRC копии 5C33A425
Трек не обнаружен в базе AccurateRip
Копирование... OK

Трек 4

Имя файла D:Птаха старые тайны�4 Пизxxлина (Skit).wav

Пиковый уровень 100.0 %
Скорость извлечения 2.2 X
Качество трека 99.9 %
CRC теста 7708D63B
CRC копии 7708D63B
Трек не обнаружен в базе AccurateRip
Копирование... OK

Трек 5

Имя файла D:Птаха старые тайны�5 Чика (feat. Tato).wav

Пиковый уровень 100.0 %
Скорость извлечения 2.8 X
Качество трека 99.9 %
CRC теста C2324FE6
CRC копии C2324FE6
Трек не обнаружен в базе AccurateRip
Копирование... OK

Трек 6

Имя файла D:Птаха старые тайны�6 Чёрный Ворон.wav

Пиковый уровень 100.0 %
Скорость извлечения 3.1 X
Качество трека 100.0 %
CRC теста D2C70E72
CRC копии D2C70E72
Трек не обнаружен в базе AccurateRip
Копирование... OK

Трек 7

Имя файла D:Птаха старые тайны�7 Света Луч.wav

Пиковый уровень 100.0 %
Скорость извлечения 3.2 X
Качество трека 100.0 %
CRC теста A0741135
CRC копии A0741135
Трек не обнаружен в базе AccurateRip
Копирование... OK

Трек 8

Имя файла D:Птаха старые тайны�8 Тебе.wav

Пиковый уровень 100.0 %
Скорость извлечения 3.5 X
Качество трека 100.0 %
CRC теста D92FC7EF
CRC копии D92FC7EF
Трек не обнаружен в базе AccurateRip
Копирование... OK

Трек 9

Имя файла D:Птаха старые тайны�9 За Ашота.wav

Пиковый уровень 100.0 %
Скорость извлечения 3.6 X
Качество трека 100.0 %
CRC теста FB1E1EBC
CRC копии FB1E1EBC
Трек не обнаружен в базе AccurateRip
Копирование... OK

Трек 10

Имя файла D:Птаха старые тайны10 На Восход (feat. Костя Бес).wav

Пиковый уровень 100.0 %
Скорость извлечения 3.9 X
Качество трека 100.0 %
CRC теста 20FD6F6F
CRC копии 20FD6F6F
Трек не обнаружен в базе AccurateRip
Копирование... OK

Трек 11

Имя файла D:Птаха старые тайны11 Вдох-Выдох (feat. Slim).wav

Пиковый уровень 100.0 %
Скорость извлечения 4.1 X
Качество трека 100.0 %
CRC теста B3B6C6D6
CRC копии B3B6C6D6
Трек не обнаружен в базе AccurateRip
Копирование... OK

Трек 12

Имя файла D:Птаха старые тайны12 Первое Слово.wav

Пиковый уровень 100.0 %
Скорость извлечения 4.3 X
Качество трека 100.0 %
CRC теста C6DF900B
CRC копии C6DF900B
Трек не обнаружен в базе AccurateRip
Копирование... OK

Трек 13

Имя файла D:Птаха старые тайны13 Моя Основа (feat. Misha Krupin).wav

Пиковый уровень 100.0 %
Скорость извлечения 4.4 X
Качество трека 100.0 %
CRC теста 0434BBCF
CRC копии 0434BBCF
Трек не обнаружен в базе AccurateRip
Копирование... OK

Трек 14

Имя файла D:Птаха старые тайны14 Аист.wav

Пиковый уровень 100.0 %
Скорость извлечения 3.5 X
Качество трека 99.9 %
CRC теста 125C4DCB
CRC копии 125C4DCB
Трек не обнаружен в базе AccurateRip
Копирование... OK

Трек 15

Имя файла D:Птаха старые тайны15 Парни Идут (feat. Tato & Gipsy King).wav

Пиковый уровень 100.0 %
Скорость извлечения 4.6 X
Качество трека 100.0 %
CRC теста CCD576E2
CRC копии CCD576E2
Трек не обнаружен в базе AccurateRip
Копирование... OK

Трек 16

Имя файла D:Птаха старые тайны16 Милкивей (Записка #2).wav

Пиковый уровень 100.0 %
Скорость извлечения 3.0 X
Качество трека 99.8 %
CRC теста 5C085C11
CRC копии 5C085C11
Трек не обнаружен в базе AccurateRip
Копирование... OK

Трек 17

Имя файла D:Птаха старые тайны17 Дымом В Облака (feat. Бьянка).wav

Пиковый уровень 100.0 %
Скорость извлечения 4.8 X
Качество трека 100.0 %
CRC теста 3869DF35
CRC копии 3869DF35
Трек не обнаружен в базе AccurateRip
Копирование... OK

Трек 18

Имя файла D:Птаха старые тайны18 Летний (feat. Tato).wav

Пиковый уровень 100.0 %
Скорость извлечения 4.8 X
Качество трека 100.0 %
CRC теста F11CB52E
CRC копии F11CB52E
Трек не обнаружен в базе AccurateRip
Копирование... OK

Трек 19

Имя файла D:Птаха старые тайны19 Старые Тайны.wav

Пиковый уровень 100.0 %
Скорость извлечения 4.8 X
Качество трека 100.0 %
CRC теста F88E191E
CRC копии F88E191E
Трек не обнаружен в базе AccurateRip
Копирование... OK

Трек 20

Имя файла D:Птаха старые тайны20 Не Забуду.wav

Пиковый уровень 100.0 %
Скорость извлечения 5.1 X
Качество трека 100.0 %
CRC теста 9659227A
CRC копии 9659227A
Трек не обнаружен в базе AccurateRip
Копирование... OK

Трек 21

Имя файла D:Птаха старые тайны21 Через Тучи (Записка #3).wav

Пиковый уровень 100.0 %
Скорость извлечения 4.3 X
Качество трека 100.0 %
CRC теста 7C366CEC
CRC копии 7C366CEC
Трек не обнаружен в базе AccurateRip
Копирование... OK

Трек 22

Имя файла D:Птаха старые тайны22 За Минусок (Skit).wav

Пиковый уровень 100.0 %
Скорость извлечения 4.3 X
Качество трека 100.0 %
CRC теста 0ABD77BA
CRC копии 0ABD77BA
Трек не обнаружен в базе AccurateRip
Копирование... OK

Трек 23

Имя файла D:Птаха старые тайны23 Миф (feat. Musa & Dok).wav

Пиковый уровень 100.0 %
Скорость извлечения 5.3 X
Качество трека 100.0 %
CRC теста 747A8211
CRC копии 747A8211
Трек не обнаружен в базе AccurateRip
Копирование... OK

Трек 24

Имя файла D:Птаха старые тайны24 Разxxбаю (Skit).wav

Пиковый уровень 100.0 %
Скорость извлечения 3.2 X
Качество трека 100.0 %
CRC теста 7784E995
CRC копии 7784E995
Трек не обнаружен в базе AccurateRip
Копирование... OK

Ни одного трека нет в базе AccurateRip

Ошибок не произошло

Конец отчёта

---- CUETools DB Plugin V2.1.3

[CTDB TOCID: FoEWQ40OkYAcdCd5sFAZECm.dxk-] disk not present in database, Submit result: FoEWQ40OkYAcdCd5sFAZECm.dxk- has been uploaded

==== Контрольная сумма отчёта FCC500990AB02ADD31EE6AC2C48B5A8F090818DE9DE30BC653402625298A9AC8 ====

REM GENRE Rap
REM DATE 2012
REM DISCID 3F117718
REM COMMENT "ExactAudioCopy v1.0b3"
PERFORMER "Птаха "
TITLE "Старые тайны"
FILE "01 На Полосках (Записка #1).wav" WAVE
TRACK 01 AUDIO
TITLE " На Полосках (Записка #1)"
PERFORMER "Птаха "
INDEX 01 00:00:00
FILE "02 Рубины (feat. Tato).wav" WAVE
TRACK 02 AUDIO
TITLE "Рубины (feat. Tato)"
PERFORMER "Птаха "
INDEX 01 00:00:00
FILE "03 2Х2.wav" WAVE
TRACK 03 AUDIO
TITLE "2Х2"
PERFORMER "Птаха "
INDEX 01 00:00:00
FILE "04 Пизxxлина (Skit).wav" WAVE
TRACK 04 AUDIO
TITLE "Пиз**лина (Skit)"
PERFORMER "Птаха "
INDEX 01 00:00:00
FILE "05 Чика (feat. Tato).wav" WAVE
TRACK 05 AUDIO
TITLE "Чика (feat. Tato)"
PERFORMER "Птаха "
INDEX 01 00:00:00
FILE "06 Чёрный Ворон.wav" WAVE
TRACK 06 AUDIO
TITLE "Чёрный Ворон"
PERFORMER "Птаха "
INDEX 01 00:00:00
FILE "07 Света Луч.wav" WAVE
TRACK 07 AUDIO
TITLE "Света Луч"
PERFORMER "Птаха "
INDEX 01 00:00:00
FILE "08 Тебе.wav" WAVE
TRACK 08 AUDIO
TITLE "Тебе"
PERFORMER "Птаха "
INDEX 01 00:00:00
FILE "09 За Ашота.wav" WAVE
TRACK 09 AUDIO
TITLE "За Ашота"
PERFORMER "Птаха "
INDEX 01 00:00:00
FILE "10 На Восход (feat. Костя Бес).wav" WAVE
TRACK 10 AUDIO
TITLE " На Восход (feat. Костя Бес)"
PERFORMER "Птаха "
INDEX 01 00:00:00
FILE "11 Вдох-Выдох (feat. Slim).wav" WAVE
TRACK 11 AUDIO
TITLE " Вдох-Выдох (feat. Slim)"
PERFORMER "Птаха "
INDEX 01 00:00:00
FILE "12 Первое Слово.wav" WAVE
TRACK 12 AUDIO
TITLE " Первое Слово"
PERFORMER "Птаха "
INDEX 01 00:00:00
FILE "13 Моя Основа (feat. Misha Krupin).wav" WAVE
TRACK 13 AUDIO
TITLE "Моя Основа (feat. Misha Krupin)"
PERFORMER "Птаха "
INDEX 01 00:00:00
FILE "14 Аист.wav" WAVE
TRACK 14 AUDIO
TITLE "Аист"
PERFORMER "Птаха "
INDEX 01 00:00:00
FILE "15 Парни Идут (feat. Tato & Gipsy King).wav" WAVE
TRACK 15 AUDIO
TITLE "Парни Идут (feat. Tato & Gipsy King)"
PERFORMER "Птаха "
INDEX 01 00:00:00
FILE "16 Милкивей (Записка #2).wav" WAVE
TRACK 16 AUDIO
TITLE "Милкивей (Записка #2)"
PERFORMER "Птаха "
INDEX 01 00:00:00
FILE "17 Дымом В Облака (feat. Бьянка).wav" WAVE
TRACK 17 AUDIO
TITLE "Дымом В Облака (feat. Бьянка)"
PERFORMER "Птаха "
INDEX 01 00:00:00
FILE "18 Летний (feat. Tato).wav" WAVE
TRACK 18 AUDIO
TITLE "Летний (feat. Tato)"
PERFORMER "Птаха "
INDEX 01 00:00:00
FILE "19 Старые Тайны.wav" WAVE
TRACK 19 AUDIO
TITLE "Старые Тайны"
PERFORMER "Птаха "
INDEX 01 00:00:00
FILE "20 Не Забуду.wav" WAVE
TRACK 20 AUDIO
TITLE "Не Забуду"
PERFORMER "Птаха "
INDEX 01 00:00:00
FILE "21 Через Тучи (Записка #3).wav" WAVE
TRACK 21 AUDIO
TITLE "Через Тучи (Записка #3)"
PERFORMER "Птаха "
INDEX 01 00:00:00
FILE "22 За Минусок (Skit).wav" WAVE
TRACK 22 AUDIO
TITLE "За Минусок (Skit)"
PERFORMER "Птаха "
INDEX 01 00:00:00
FILE "23 Миф (feat. Musa & Dok).wav" WAVE
TRACK 23 AUDIO
TITLE " Миф (feat. Musa & Dok)"
PERFORMER "Птаха "
INDEX 01 00:00:00
FILE "24 Разxxбаю (Skit).wav" WAVE
TRACK 24 AUDIO
TITLE " Раз**баю (Skit)"
PERFORMER "Птаха "
INDEX 01 00:00:00

AUDIOCHECKER v2.0 beta (build 457) - by Dester - opdester@freemail.hu
~~~~~~~~~~~~~~~~~~~~~~~~~~~~~~~~~~
-=== НЕ РЕДАКТИРУЙТЕ ЭТОТ ФАЙЛ! ===-

Путь: ...Птаха старые тайны

01 -=- 01 На Полосках (Записка #1).flac -=- CDDA (99%)
02 -=- 02 Рубины (feat. Tato).flac -=- CDDA (100%)
03 -=- 03 2Х2.flac -=- CDDA (92%)
04 -=- 04 Пизxxлина (Skit).flac -=- CDDA (100%)
05 -=- 05 Чика (feat. Tato).flac -=- CDDA (100%)
06 -=- 06 Чёрный Ворон.flac -=- CDDA (100%)
07 -=- 07 Света Луч.flac -=- CDDA (100%)
08 -=- 08 Тебе.flac -=- CDDA (100%)
09 -=- 09 За Ашота.flac -=- CDDA (100%)
10 -=- 10 На Восход (feat. Костя Бес).flac -=- CDDA (100%)
11 -=- 11 Вдох-Выдох (feat. Slim).flac -=- CDDA (100%)
12 -=- 12 Первое Слово.flac -=- CDDA (99%)
13 -=- 13 Моя Основа (feat. Misha Krupin).flac -=- CDDA (100%)
14 -=- 14 Аист.flac -=- CDDA (100%)
15 -=- 15 Парни Идут (feat. Tato & Gipsy King).flac -=- CDDA (100%)
16 -=- 16 Милкивей (Записка #2).flac -=- CDDA (100%)
17 -=- 17 Дымом В Облака (feat. Бьянка).flac -=- CDDA (100%)
18 -=- 18 Летний (feat. Tato).flac -=- CDDA (100%)
19 -=- 19 Старые Тайны.flac -=- CDDA (100%)
20 -=- 20 Не Забуду.flac -=- CDDA (100%)
21 -=- 21 Через Тучи (Записка #3).flac -=- CDDA (100%)
22 -=- 22 За Минусок (Skit).flac -=- CDDA (100%)
23 -=- 23 Миф (feat. Musa & Dok).flac -=- CDDA (100%)
24 -=- 24 Разxxбаю (Skit).flac -=- CDDA (100%)

Сводка 99,58% CDDA

264423268
kino.freetor.icu



Скачать Птаха - Старые тайны 2012 через торрент http://i4.imageban.ru/out/2012/07/28/3987449d5f35a3102ce1ffa90d3bd191.jpg Скачать, смотреть онлайн Птаха - Старые тайны 2012 бесплантно в хорошем качестве Треклист01 - На Полосках (Записка #1) [01:55]02 - Рубины (feat. Tato) [03:19]03 - 2Х2 [02:58]04 - Пиз**лина (Skit) [02:14]05 - Чика ... 10 10 6
Info! Золотая раздача, скачанное не засчитывается.
Торрент: Зарегистрирован [2012-12-23 02:33] · скачан: 235 раз
Статус: √ проверено
Размер: 508 MB
Как cкачать? Как скачать Птаха - Старые тайны 2012 через торрент | UTorrent

28-11-2019 20:33  

Отключить всю рекламу на сайте

    Дорогой пользователь! Огромная просьба, поблагодарите релизера, оцените раздачу и оставьте свои комментарий, если Вы скачали Птаха - Старые тайны 2012 через торрент бесплатно!
    Комментировать посты могут только пользователи прошедшие не сложную регистрацию
    Показать сообщения:    

    Птаха - Старые тайны 2012 через торрент
    Скачать бесплатно Птаха - Старые тайны 2012
    Птаха - Старые тайны 2012 скачать торрент
    Птаха - Старые тайны 2012 смотреть онлайн
    Cкачать фильм Птаха - Старые тайны 2012 бесплатно
    Птаха - Старые тайны 2012 скачать торрент в хорошем качестве
    Птаха - Старые тайны 2012 смотреть онлайн бесплатно в хорошем качестве


    Вы не можете начинать темы
    Вы не можете отвечать на сообщения
    Вы не можете редактировать свои сообщения
    Вы не можете удалять свои сообщения
    Вы не можете голосовать в опросах
    Вы не можете прикреплять файлы к сообщениям
    Вы можете скачивать файлы