Anonymous, доброй ночи, присоединяйтесь к нам в Telegram!, здесь всегда актуальный адрес сайта, оперативная поддержка и многое другое!

>

5.6

iTunes

7.4

iTunes

5.7

MVO

1

7.7

1 сезон

6.8

iTunes

7.3

1 сезон

13

6.7

1 сезон

8.3

RePack

30

ULTIMATE

pack

9.9

Лицензия

ВАЖНО

ИГРА 18+

pack

7.3

RePack

MK11

7.7

RePack

jed

7.8

RePack

fifa19

8.5

RePack

RDR2

RePack

NEED FOR SPEED™ PAYBACK

4 сезон

9 сезон

Бесстыжие 9 сезон

Все сериалы

все сериалы на PB.wtf

RePack

FAR CRY 5

Anonymous, доброй ночи, мы катастрофически не успеваем собрать деньги на оплату серверов, помогите нам пожалуйста 5,10,15р., для нас важна любая помощь . В качестве благодарности мы отключим Вам всю рекламу на сайте (укажите свой ник в строку Ваше имя)!

×
  
Magnet ссылка

Триада - Мои Глаза Открыты 2012 / FLAC (tracks+.cue) / lossless / Rap kino.freetor.icu

Триада - Мои Глаза Открыты 2012 через торрент kino.freetor.icu

Размер: 358 MB | Добавлен: 8 лет 9 мес. назад | Торрент скачан:136 раз
Смотреть онлайн Триада - Мои Глаза Открыты 2012 | Скачать    Ребята, помогите собрать деньги на оплату серверов!!!

23-12-2012 03:45 Триада - Мои Глаза Открыты 2012 Скачать торрент  

Триада - Мои Глаза Открыты (2012)
Страна: Россия
Год Выпуска: 2012
Жанр: Rap
Издатель (лейбл): Distribution Music Onion
Номер по каталогу: 22
Продолжительность: 00:56:08
Кодек: FLAC (*.flac)
Тип рипа: tracks+.cue
Битрейт: lossless
Наличие сканов в содержимом раздачи: нет
  • 01. Доктор
  • 02. Жми «Play» (при уч. Лион)
  • 03. Муза
  • 04. Без ума
  • 05. Самим собой
  • 06. Завтра
  • 07. Степлер
  • 08. Бойся
  • 09. Устал (при уч. Булат)
  • 10. Штук 10
  • 11. Она не узнает
  • 12. Шапито
  • 13. Бали
  • 14. Вы этого не увидите
  • 15. Ступай

Exact Audio Copy V1.0 beta 3 from 29. August 2011

Отчёт EAC об извлечении, выполненном 22. декабря 2012, 15:49

Триада / Мои глаза открыты

Дисковод: Optiarc DVD RW AD-7280S Adapter: 0 ID: 0

Режим чтения : Достоверность
Использование точного потока : Да
Отключение кэша аудио : Да
Использование указателей C2 : Нет

Коррекция смещения при чтении : 48
Способность читать области Lead-in и Lead-out : Нет
Заполнение пропущенных сэмплов тишиной : Да
Удаление блоков с тишиной в начале и конце : Нет
При вычислениях CRC использовались нулевые сэмплы : Да
Интерфейс : Встроенный Win32-интерфейс для Win NT/2000
Обработка зазоров : Добавлено к предыдущему треку

Выходной формат : Пользовательский кодировщик
Выбранный битрейт : 128 kBit/s
Качество : Высокий
Добавление ID3-тега : Нет
Утилита сжатия : C:Program Files (x86)FLACflac.exe
Дополнительные параметры : -V -8 -T "Genre=%genre%" -T "Artist=%artist%" -T "Title=%title%" -T "Album=%albumtitle%" -T "Date=%year%" -T "Tracknumber=%tracknr%" -T "Comment=%comment%" %source%

TOC извлечённого CD

Трек | Старт | Длительность | Начальный сектор | Конечный сектор
---------------------------------------------------------------------
1 | 0:00.00 | 4:12.65 | 0 | 18964
2 | 4:12.65 | 3:43.73 | 18965 | 35762
3 | 7:56.63 | 3:30.50 | 35763 | 51562
4 | 11:27.38 | 3:06.27 | 51563 | 65539
5 | 14:33.65 | 3:23.22 | 65540 | 80786
6 | 17:57.12 | 4:24.48 | 80787 | 100634
7 | 22:21.60 | 3:57.48 | 100635 | 118457
8 | 26:19.33 | 3:25.39 | 118458 | 133871
9 | 29:44.72 | 5:02.64 | 133872 | 156585
10 | 34:47.61 | 3:12.00 | 156586 | 170985
11 | 37:59.61 | 3:28.00 | 170986 | 186585
12 | 41:27.61 | 3:45.25 | 186586 | 203485
13 | 45:13.11 | 3:03.40 | 203486 | 217250
14 | 48:16.51 | 3:54.11 | 217251 | 234811
15 | 52:10.62 | 3:57.25 | 234812 | 252611

Трек 1

Имя файла D:Триада - мои глаза открыты�1 Доктор.wav

Длина предзазора 0:00:02.00

Пиковый уровень 100.0 %
Скорость извлечения 2.3 X
Качество трека 100.0 %
CRC теста D46133B8
CRC копии D46133B8
Трек не обнаружен в базе AccurateRip
Копирование... OK

Трек 2

Имя файла D:Триада - мои глаза открыты�2 Жми «Play» (при уч. Лион).wav

Пиковый уровень 100.0 %
Скорость извлечения 2.6 X
Качество трека 100.0 %
CRC теста 3F350C46
CRC копии 3F350C46
Трек не обнаружен в базе AccurateRip
Копирование... OK

Трек 3

Имя файла D:Триада - мои глаза открыты�3 Муза.wav

Пиковый уровень 100.0 %
Скорость извлечения 2.8 X
Качество трека 100.0 %
CRC теста 8F2ED9EF
CRC копии 8F2ED9EF
Трек не обнаружен в базе AccurateRip
Копирование... OK

Трек 4

Имя файла D:Триада - мои глаза открыты�4 Без ума.wav

Пиковый уровень 100.0 %
Скорость извлечения 2.9 X
Качество трека 100.0 %
CRC теста 81DE6887
CRC копии 81DE6887
Трек не обнаружен в базе AccurateRip
Копирование... OK

Трек 5

Имя файла D:Триада - мои глаза открыты�5 Самим собой.wav

Пиковый уровень 100.0 %
Скорость извлечения 3.1 X
Качество трека 100.0 %
CRC теста 563C6DEC
CRC копии 563C6DEC
Трек не обнаружен в базе AccurateRip
Копирование... OK

Трек 6

Имя файла D:Триада - мои глаза открыты�6 Завтра.wav

Пиковый уровень 100.0 %
Скорость извлечения 3.4 X
Качество трека 100.0 %
CRC теста AEA5F315
CRC копии AEA5F315
Трек не обнаружен в базе AccurateRip
Копирование... OK

Трек 7

Имя файла D:Триада - мои глаза открыты�7 Степлер.wav

Пиковый уровень 100.0 %
Скорость извлечения 3.6 X
Качество трека 100.0 %
CRC теста F5857B05
CRC копии F5857B05
Трек не обнаружен в базе AccurateRip
Копирование... OK

Трек 8

Имя файла D:Триада - мои глаза открыты�8 Бойся.wav

Пиковый уровень 100.0 %
Скорость извлечения 3.2 X
Качество трека 99.9 %
CRC теста 10D46C5D
CRC копии 10D46C5D
Трек не обнаружен в базе AccurateRip
Копирование... OK

Трек 9

Имя файла D:Триада - мои глаза открыты�9 Устал (при уч. Булат).wav

Пиковый уровень 100.0 %
Скорость извлечения 4.0 X
Качество трека 100.0 %
CRC теста DB0186FF
CRC копии DB0186FF
Трек не обнаружен в базе AccurateRip
Копирование... OK

Трек 10

Имя файла D:Триада - мои глаза открыты10 Штук 10.wav

Пиковый уровень 100.0 %
Скорость извлечения 4.0 X
Качество трека 100.0 %
CRC теста C313F86A
CRC копии C313F86A
Трек не обнаружен в базе AccurateRip
Копирование... OK

Трек 11

Имя файла D:Триада - мои глаза открыты11 Она не узнает.wav

Пиковый уровень 100.0 %
Скорость извлечения 4.1 X
Качество трека 100.0 %
CRC теста A4DB261A
CRC копии A4DB261A
Трек не обнаружен в базе AccurateRip
Копирование... OK

Трек 12

Имя файла D:Триада - мои глаза открыты12 Шапито.wav

Пиковый уровень 100.0 %
Скорость извлечения 4.3 X
Качество трека 100.0 %
CRC теста 8E4AF475
CRC копии 8E4AF475
Трек не обнаружен в базе AccurateRip
Копирование... OK

Трек 13

Имя файла D:Триада - мои глаза открыты13 Бали.wav

Пиковый уровень 100.0 %
Скорость извлечения 4.3 X
Качество трека 100.0 %
CRC теста ABFD6EE5
CRC копии ABFD6EE5
Трек не обнаружен в базе AccurateRip
Копирование... OK

Трек 14

Имя файла D:Триада - мои глаза открыты14 Вы этого не увидете.wav

Пиковый уровень 100.0 %
Скорость извлечения 4.6 X
Качество трека 100.0 %
CRC теста 1936F135
CRC копии 1936F135
Трек не обнаружен в базе AccurateRip
Копирование... OK

Трек 15

Имя файла D:Триада - мои глаза открыты15 Ступай.wav

Пиковый уровень 100.0 %
Скорость извлечения 4.7 X
Качество трека 100.0 %
CRC теста E69A7A25
CRC копии E69A7A25
Трек не обнаружен в базе AccurateRip
Копирование... OK

Ни одного трека нет в базе AccurateRip

Ошибок не произошло

Конец отчёта

---- CUETools DB Plugin V2.1.3

[CTDB TOCID: auHSz5EWRMLkMV7wR9eRMrq_Nc0-] disk not present in database, Submit result: auHSz5EWRMLkMV7wR9eRMrq_Nc0- has been uploaded

==== Контрольная сумма отчёта 4BE0002DC7B41CD989D5038BB67F570BD03B786A0FC0BCC10EDBE4344B6C1953 ====

REM GENRE Rap
REM DATE 2012
REM DISCID F60D280F
REM COMMENT "ExactAudioCopy v1.0b3"
PERFORMER "Триада"
TITLE "Мои глаза открыты"
FILE "01 Доктор.wav" WAVE
TRACK 01 AUDIO
TITLE "Доктор "
PERFORMER "Триада"
INDEX 01 00:00:00
FILE "02 Жми «Play» (при уч. Лион).wav" WAVE
TRACK 02 AUDIO
TITLE " Жми «Play» (при уч. Лион) "
PERFORMER "Триада"
INDEX 01 00:00:00
FILE "03 Муза.wav" WAVE
TRACK 03 AUDIO
TITLE "Муза "
PERFORMER "Триада"
INDEX 01 00:00:00
FILE "04 Без ума.wav" WAVE
TRACK 04 AUDIO
TITLE " Без ума "
PERFORMER "Триада"
INDEX 01 00:00:00
FILE "05 Самим собой.wav" WAVE
TRACK 05 AUDIO
TITLE "Самим собой "
PERFORMER "Триада"
INDEX 01 00:00:00
FILE "06 Завтра.wav" WAVE
TRACK 06 AUDIO
TITLE "Завтра "
PERFORMER "Триада"
INDEX 01 00:00:00
FILE "07 Степлер.wav" WAVE
TRACK 07 AUDIO
TITLE "Степлер "
PERFORMER "Триада"
INDEX 01 00:00:00
FILE "08 Бойся.wav" WAVE
TRACK 08 AUDIO
TITLE "Бойся "
PERFORMER "Триада"
INDEX 01 00:00:00
FILE "09 Устал (при уч. Булат).wav" WAVE
TRACK 09 AUDIO
TITLE " Устал (при уч. Булат)"
PERFORMER "Триада"
INDEX 01 00:00:00
FILE "10 Штук 10.wav" WAVE
TRACK 10 AUDIO
TITLE "Штук 10 "
PERFORMER "Триада"
INDEX 01 00:00:00
FILE "11 Она не узнает.wav" WAVE
TRACK 11 AUDIO
TITLE "Она не узнает "
PERFORMER "Триада"
INDEX 01 00:00:00
FILE "12 Шапито.wav" WAVE
TRACK 12 AUDIO
TITLE "Шапито "
PERFORMER "Триада"
INDEX 01 00:00:00
FILE "13 Бали.wav" WAVE
TRACK 13 AUDIO
TITLE "Бали "
PERFORMER "Триада"
INDEX 01 00:00:00
FILE "14 Вы этого не увидете.wav" WAVE
TRACK 14 AUDIO
TITLE "Вы этого не увидете"
PERFORMER "Триада"
INDEX 01 00:00:00
FILE "15 Ступай.wav" WAVE
TRACK 15 AUDIO
TITLE "Ступай"
PERFORMER "Триада"
INDEX 01 00:00:00

AUDIOCHECKER v2.0 beta (build 457) - by Dester - opdester@freemail.hu
~~~~~~~~~~~~~~~~~~~~~~~~~~~~~~~~~~
-=== НЕ РЕДАКТИРУЙТЕ ЭТОТ ФАЙЛ! ===-

Путь: ...Триада - мои глаза открыты

01 -=- 01 Доктор.flac -=- CDDA (100%)
02 -=- 02 Жми «Play» (при уч. Лион).flac -=- CDDA (100%)
03 -=- 03 Муза.flac -=- CDDA (99%)
04 -=- 04 Без ума.flac -=- CDDA (100%)
05 -=- 05 Самим собой.flac -=- CDDA (99%)
06 -=- 06 Завтра.flac -=- CDDA (100%)
07 -=- 07 Степлер.flac -=- CDDA (99%)
08 -=- 08 Бойся.flac -=- CDDA (99%)
09 -=- 09 Устал (при уч. Булат).flac -=- CDDA (99%)
10 -=- 10 Штук 10.flac -=- CDDA (100%)
11 -=- 11 Она не узнает.flac -=- CDDA (100%)
12 -=- 12 Шапито.flac -=- CDDA (99%)
13 -=- 13 Бали.flac -=- CDDA (100%)
14 -=- 14 Вы этого не увидете.flac -=- CDDA (92%)
15 -=- 15 Ступай.flac -=- CDDA (100%)

Сводка 99,07% CDDA

27695444
kino.freetor.icu



Скачать Триада - Мои Глаза Открыты 2012 через торрент http://i4.imageban.ru/out/2012/07/28/3987449d5f35a3102ce1ffa90d3bd191.jpg Скачать, смотреть онлайн Триада - Мои Глаза Открыты 2012 бесплантно в хорошем качестве Треклист Доктор Жми «Play» (при уч. Лион) Муза Без ума Самим собой Завтра Степлер08. Бойся09. Устал (при уч. ... 10 10 6
Info! Золотая раздача, скачанное не засчитывается.
Торрент: Зарегистрирован [2012-12-23 03:45] · скачан: 136 раз
Статус: √ проверено
Размер: 358 MB
Как cкачать? Как скачать Триада - Мои Глаза Открыты 2012 через торрент | UTorrent

28-11-2019 20:33  

Отключить всю рекламу на сайте

    Дорогой пользователь! Огромная просьба, поблагодарите релизера, оцените раздачу и оставьте свои комментарий, если Вы скачали Триада - Мои Глаза Открыты 2012 через торрент бесплатно!
    Комментировать посты могут только пользователи прошедшие не сложную регистрацию
    Показать сообщения:    

    Триада - Мои Глаза Открыты 2012 через торрент
    Скачать бесплатно Триада - Мои Глаза Открыты 2012
    Триада - Мои Глаза Открыты 2012 скачать торрент
    Триада - Мои Глаза Открыты 2012 смотреть онлайн
    Cкачать фильм Триада - Мои Глаза Открыты 2012 бесплатно
    Триада - Мои Глаза Открыты 2012 скачать торрент в хорошем качестве
    Триада - Мои Глаза Открыты 2012 смотреть онлайн бесплатно в хорошем качестве


    Вы не можете начинать темы
    Вы не можете отвечать на сообщения
    Вы не можете редактировать свои сообщения
    Вы не можете удалять свои сообщения
    Вы не можете голосовать в опросах
    Вы не можете прикреплять файлы к сообщениям
    Вы можете скачивать файлы